Ёлки (Рим Шарафутдинов) [2017, Россия, мультфильм, WEBRip]

Ответить на тему
Статистика раздачи
Размер:  134 MB   |    Зарегистрирован:  1 месяц 1 день   |    Скачан:  0 раз

Полного источника не было: Никогда

   
 
Автор Сообщение

xelon ®

Пол: Не указан

Стаж: 1 месяц 7 дней

Сообщений: 58

Создавать темы 18-Мар-2019 10:01

[Цитировать]

Ёлки
Страна: Россия
Жанр: мультфильм
Продолжительность: 00:08:38
Год выпуска: 2017
Режиссёр: Рим Шарафутдинов
Описание: Смешной мультфильм про то, как горожане отмечают Новый Год.
Качество: WEBRip
Формат: MP4
Видео: 1966 kbps, 1280х720 (16:9), 25.000 fps, AVC (High@L3.1)
Аудио: 192 kbps, 44.1 kHz, 2 channels, AAC (LC)
Субтитры: отсутствуют

Подробные технические данные

General
Complete name : Ёлки (2017).mp4
Format : MPEG-4
Format profile : Base Media / Version 2
Codec ID : mp42
File size : 134 MiB
Duration : 8mn 38s
Overall bit rate mode : Variable
Overall bit rate : 2 160 Kbps
Encoded date : UTC 2018-04-10 07:40:37
Tagged date : UTC 2018-04-10 07:40:37
gsst : 0
gstd : 518664
Video
ID : 1
Format : AVC
Format/Info : Advanced Video Codec
Format profile : High@L3.1
Format settings, CABAC : Yes
Format settings, ReFrames : 1 frame
Codec ID : avc1
Codec ID/Info : Advanced Video Coding
Duration : 8mn 38s
Bit rate : 1 966 Kbps
Width : 1 280 pixels
Height : 720 pixels
Display aspect ratio : 16:9
Frame rate mode : Constant
Frame rate : 25.000 fps
Color space : YUV
Chroma subsampling : 4:2:0
Bit depth : 8 bits
Scan type : Progressive
Bits/(Pixel*Frame) : 0.085
Stream size : 122 MiB (91%)
Title : ISO Media file produced by Google Inc. Created on: 04/10/2018.
Encoded date : UTC 2018-04-10 07:40:37
Tagged date : UTC 2018-04-10 07:40:37
Color primaries : BT.709
Transfer characteristics : BT.709
Matrix coefficients : BT.709
Audio
ID : 2
Format : AAC
Format/Info : Advanced Audio Codec
Format profile : LC
Codec ID : 40
Duration : 8mn 38s
Bit rate mode : Variable
Bit rate : 192 Kbps
Channel(s) : 2 channels
Channel positions : Front: L R
Sampling rate : 44.1 KHz
Compression mode : Lossy
Stream size : 11.9 MiB (9%)
Title : ISO Media file produced by Google Inc. Created on: 04/10/2018.
Language : English
Encoded date : UTC 2018-04-10 07:40:37
Tagged date : UTC 2018-04-10 07:40:37

Скриншоты

Если ваш рейтинг упадет ниже 0,3, вы не сможете скачивать торренты! Подробнее о рейтинге.

[cybertorrent.ru].t179.torrent 
Торрент: Зарегистрирован [ 2019-03-18 10:04 ] · 275A943BB88D3D295E88F3686E79C87673283233

Скачать .torrent

Скачать

11 KB

Статус: проверено
Скачан: 0 раз
Размер: 134 MB
terms.php
[Профиль] [ЛС]
Показать сообщения:    
Ответить на тему

Текущее время: 20-Апр 00:32

Часовой пояс: UTC ± 0



Вы не можете начинать темы
Вы не можете отвечать на сообщения
Вы не можете редактировать свои сообщения
Вы не можете удалять свои сообщения
Вы не можете голосовать в опросах
Вы не можете прикреплять файлы к сообщениям
Вы можете скачивать файлы