Дом у дороги / Придорожная закусочная / Придорожное заведение / Road House (Рауди Херрингтон / Rowdy Herrington) [1989, США, боевик, приключения, BDRip-AVC] VO (Орбита) + Sub Eng + Original Eng

Ответить на тему
Статистика раздачи
Размер:  2,15 GB   |    Зарегистрирован:  4 месяца 12 дней   |    Скачан:  0 раз

Полного источника не было: Никогда

   
 
Автор Сообщение

serzh ®

Пол: Не указан

Стаж: 5 месяцев 6 дней

Сообщений: 348

Создавать темы 06-Апр-2019 16:23

[Цитировать]

Дом у дороги / Road House
Страна: США
Жанр: боевик, приключения
Год выпуска: 1989
Продолжительность: 01:54:10
Перевод: Одноголосый закадровый неизвестной Дамы студии "Орбита"
Субтитры: английские
Оригинальная аудиодорожка: английский
Режиссер: Рауди Херрингтон /Rowdy Herrington/
В ролях: Патрик Суэйзи /Patrick Swayze/, Бен Газзара /Ben Gazzara/, Келли Линч /Kelly Lynch/, Сэм Эллиотт /Sam Elliott/, Джули Майклс /Julie Michaels/, Маршалл Тиг /Marshall Teague/...
Рецензия Михаила Иванова: Далтон (Суэйзи) - вышибала в кафе, а оружие его - холодный рассудок, увесистые кулаки и... степень по философии. Уэсли (Газзара) разбогател, вымогая деньги у бизнесменов. Любой крепко подумал бы, прежде чем выступать против Уэсли. Любой, кроме Далтона. Прекрасная докторша (Линч) любит Далтона, но ей за это жестоко мстит Уэсли. Эллиотт играет лучшего друга Далтона, у которого есть замечательная особенность появляться там, где драка. Продюсер Джоэл Силвер ("Смертельное оружие") не ошибся, вложив деньги в этот фильм.
Доп. информация: исходник от roman1242; перевод Дамы с Орбиты оцифровал и подготовил karlll
нашлась древняя AGFA_GX_E180_made_in_Germany с полным метражом кинофильма, поэтому тут теперь перевод БЕЗ пропусков!!!
~Сэмпл~
Качество видео: BDRip-AVC
Формат видео: MKV
Видео: MPEG4 Video (H264) 1152x496 23.976fps 2316Kbps
Аудио 1: AC3 48KHz 2ch 192Kbps - Дама
Аудио 2: AC3 48KHz 2ch 192Kbps - анг
Формат субтитров: softsub (SRT)

MediaInfo

Format : Matroska
Format version : Version 2
File size : 2.15 GiB
Duration : 1 h 54 min
Overall bit rate : 2 702 kb/s
Movie name : Road House_1989_BDRip_KBC
Encoded date : UTC 2019-03-28 17:04:09
Writing application : mkvmerge v6.9.1 ('Blue Panther') 32bit built on Apr 18 2014 18:15:44
Writing library : libebml v1.3.0 + libmatroska v1.4.1
Video
ID : 1
Format : AVC
Format/Info : Advanced Video Codec
Format profile : High@L3.1
Format settings : CABAC / 7 Ref Frames
Format settings, CABAC : Yes
Format settings, RefFrames : 7 frames
Codec ID : V_MPEG4/ISO/AVC
Duration : 1 h 54 min
Bit rate : 2 316 kb/s
Width : 1 152 pixels
Height : 496 pixels
Display aspect ratio : 2.35:1
Frame rate mode : Constant
Frame rate : 23.976 (24000/1001) FPS
Color space : YUV
Chroma subsampling : 4:2:0
Bit depth : 8 bits
Scan type : Progressive
Bits/(Pixel*Frame) : 0.169
Stream size : 1.81 GiB (84%)
Title : Road House_1989
Writing library : x264 core 152 r2851kMod ba24899
Encoding settings : cabac=1 / ref=7 / deblock=1:-1:-1 / analyse=0x3:0x113 / me=umh / subme=9 / psy=1 / fade_compensate=0.00 / psy_rd=1.00:0.20 / mixed_ref=1 / me_range=24 / chroma_me=1 / trellis=2 / 8x8dct=1 / cqm=0 / deadzone=21,11 / fast_pskip=0 / chroma_qp_offset=-3 / threads=6 / lookahead_threads=1 / sliced_threads=0 / nr=0 / decimate=0 / interlaced=0 / bluray_compat=0 / constrained_intra=0 / bframes=7 / b_pyramid=2 / b_adapt=2 / b_bias=0 / direct=3 / weightb=1 / open_gop=0 / weightp=2 / keyint=250 / keyint_min=23 / scenecut=40 / intra_refresh=0 / rc_lookahead=50 / rc=2pass / mbtree=1 / bitrate=2316 / ratetol=1.0 / qcomp=0.60 / qpmin=0 / qpmax=69 / qpstep=4 / cplxblur=20.0 / qblur=0.5 / vbv_maxrate=14000 / vbv_bufsize=14000 / nal_hrd=none / filler=0 / ip_ratio=1.40 / aq=1:1.00
Language : English
Default : Yes
Forced : No
Audio #1
ID : 2
Format : AC-3
Format/Info : Audio Coding 3
Commercial name : Dolby Digital
Codec ID : A_AC3
Duration : 1 h 54 min
Bit rate mode : Constant
Bit rate : 192 kb/s
Channel(s) : 2 channels
Channel layout : L R
Sampling rate : 48.0 kHz
Frame rate : 31.250 FPS (1536 SPF)
Bit depth : 16 bits
Compression mode : Lossy
Stream size : 157 MiB (7%)
Title : Орбита
Language : Russian
Service kind : Complete Main
Default : Yes
Forced : No
Audio #2
ID : 3
Format : AC-3
Format/Info : Audio Coding 3
Commercial name : Dolby Digital
Codec ID : A_AC3
Duration : 1 h 54 min
Bit rate mode : Constant
Bit rate : 192 kb/s
Channel(s) : 2 channels
Channel layout : L R
Sampling rate : 48.0 kHz
Frame rate : 31.250 FPS (1536 SPF)
Bit depth : 16 bits
Compression mode : Lossy
Stream size : 157 MiB (7%)
Title : english
Language : English
Service kind : Complete Main
Default : No
Forced : No
Text
ID : 4
Format : UTF-8
Codec ID : S_TEXT/UTF8
Codec ID/Info : UTF-8 Plain Text
Title : eng
Language : English
Default : No
Forced : No

Скриншоты

музыка и исполнители:

Don't Throw Stones
Written by Tito Larriva
Produced by Waddy Wachtel
Performed by Cruzados
Courtesy of Arista Records
Savoire Faire
Written by Willy DeVille
Produced by Waddy Wachtel
Performed by Cruzados
Courtesy of Arista Records
On the Road Again
Written by Floyd Jones (as Floyd V. Jones) and Alan Wilson (as Alan C. Wilson)
Produced by Jimmy Iovine
Performed by The Jeff Healey Band
Courtesy of Arista Records
Confidence Man
Written by John Hiatt
Produced by Jimmy Iovine
Performed by The Jeff Healey Band
Courtesy of Arista Records
Runaround Sue
Written by Dion DiMucci (as Dion Di Mucci) and Ernie Maresca (as Ernest Maresca)
Performed by Dion DiMucci (as Dion)
Courtesy of Laurie Records
By Arrangement with Continental Communications Corp.
Long Tall Sally
Written by Robert 'Bumps' Blackwell (as Robert Blackwell), Enotris Johnson and Little Richard (as Richard Penniman)
Produced by Jimmy Iovine
Performed by The Jeff Healey Band
Courtesy of Arista Records
Travelin' Band
Written by John Fogerty (as J.C. Fogerty)
Produced by Jimmy Iovine
Performed by The Jeff Healey Band
Courtesy of Arista Records
Good Heart
Written by Maria McKee
Produced by Jimmy Iovine
Performed by Kris McKay
Courtesy of Arista Records
Blue Monday
Written by David Bartholomew (as Dave Bartholomew) and Fats Domino (as Antonie "Fats" Domino)
Produced by Bob Seger
Performed by Bob Seger
Courtesy of Capitol Records
Sh-Boom
Written by James Keyes, Carl Feaster, Claude Feaster, Floyd McRae and James Edwards (as James W. Edwards)
Performed by The Crew Cuts
Courtesy of PolyGram Special Products, a division of PolyGram Records, Inc.
One Foot on the Gravel
Written by Jeff Healey, Thomas Stephen (as Tom Stephan) and Joseph Rockman
Produced by Jimmy Iovine
Performed by The Jeff Healey Band
Courtesy of Arista Records
Hear That Guitar Ring
Written by Jack Lavin and Tom Lavin
Produced by Jimmy Iovine
Performed by The Jeff Healey Band
Courtesy of Arista Records
Mustang Sally
Written by Mack Rice
Performed by Wilson Pickett
Courtesy of Atlantic Recording Corp.
By Arrangement with Warner Special Products
Knock on Wood
Written by Eddie Floyd and Steve Cropper
Produced by Jimmy Iovine
Performed by The Jeff Healey Band and Kathleen Wilhoite
The Jeff Healey Band appears courtesy of Arista Records
I'm Tore Down
Written by Sonny Thompson
Produced by Jimmy Iovine
Performed by The Jeff Healey Band
Courtesy of Arista Records
Fire in the Night
Written by Bob Corbin
Performed by Alabama
Courtesy of RCA Records
Do You Really Want Me
Written by Keith Holland, Geri Berry and Kristine W (as Kristine Weitz)
Performed by Kristine W (as Kristine Weitz)
Courtesy of Genius Records, a division of Jam-Power, Inc.
Roadhouse Blues
Written by Jim Morrison, Robby Krieger, John Densmore and Ray Manzarek
Produced by Jimmy Iovine
Performed by The Jeff Healey Band
Courtesy of Arista Records
I Sold My Soul to Rock and Roll
Written by Klaus Thiel and Paul Psilias
Performed by Bullet
Courtesy of Arista Records
These Arms of Mine
Written by Otis Redding
Performed by Otis Redding
Courtesy of Atlantic Recording Corp.
By Arrangement with Warner Special Projects
Raising Heaven (in Hell) Tonight
Written by Willie Nile and Martin Briley
Produced by David Kershenbaum and Bob Marlette
Performed by Patrick Swayze
Cliff's Edge
Written by Patrick Swayze, Stacy Widelitz and Bob Marlette
Produced by David Kershenbaum and Bob Marlette
Performed by Patrick Swayze
Right from the Start
Written by Billy Herzig and Randy Watkins
Performed by Earl Thomas Conley
Courtesy of RCA Records
All My Ex's Live in Texas
Written by Sanger D. Shafer and Lyndia J. Shafer
Performed by George Strait
Courtesy of MCA Records
Rad Gumbo
Written by Bill Payne, Paul Barrere, Martin Kibbee, Sam Clayton and Kenny Gradney
Produced by George Massenburg and Bill Payne
Performed by Little Feat
Courtesy of Warner Bros. Records
White Room
Written by Jack Bruce and Pete Brown (as Peter Brown)
Produced by Jimmy Iovine
Performed by The Jeff Healey Band
Courtesy of Arista Records
Hoochie Coochie Man
Written by Willie Dixon
Produced by Jimmy Iovine
Performed by The Jeff Healey Band
Courtesy of Arista Records
When the Night Comes Falling from the Sky
Written by Bob Dylan
Produced by Jimmy Iovine
Performed by The Jeff Healey Band
Courtesy of Arista Records
The Patty Duke Theme Song
(uncredited)
Music by Sid Ramin
Lyrics by Robert Wells
Performed by The Skip-Jacks

ps

сборку посвящаю Вальке, древнему поклоннику Патрика Суэйзи
[cybertorrent.ru].t1793.torrent 
Торрент: Зарегистрирован [ 2019-04-06 16:23 ] · 7CDF5EA2E1D928613A0850E3CBE644AB88BDB078

Скачать .torrent

Скачать

11 KB

Статус: проверено
Скачан: 0 раз
Размер: 2,15 GB
terms.php
[Профиль] [ЛС]
Показать сообщения:    
Ответить на тему

Текущее время: 19-Авг 05:25

Часовой пояс: UTC ± 0



Вы не можете начинать темы
Вы не можете отвечать на сообщения
Вы не можете редактировать свои сообщения
Вы не можете удалять свои сообщения
Вы не можете голосовать в опросах
Вы не можете прикреплять файлы к сообщениям
Вы можете скачивать файлы