Внимание, ёлка! (Альберт Нерсесов) [1983, СССР, мультфильм, WEBRip / Telesync]

Ответить на тему
Статистика раздачи
Размер:  117 MB   |    Зарегистрирован:  3 месяца 1 день   |    Скачан:  0 раз

Полного источника не было: Никогда

   
 
Автор Сообщение

xelon ®

Пол: Не указан

Стаж: 3 месяца 7 дней

Сообщений: 77

Создавать темы 18-Мар-2019 10:01

[Цитировать]

Внимание, ёлка!
Страна: СССР (Грузинская республика)
Жанр: мультфильм
Продолжительность: 00:09:11
Год выпуска: 1983
Русские субтитры: нет
Режиссёр: Альберт Нерсесов
Описание: Дед Мороз и лесные звери устраивают для детей новогоднее представление и попутно напоминают про пожарную безопасность.
Качество: WEBRip (Telesync)
Формат: AVI
Видео: 1581 kbps, 576х432 (4:3), 25.000 fps, MPEG-4 Visual (XviD)
Аудио: 192 kbps, 44.1 kHz, 2 channels, MPEG Audio (MP3)
Субтитры: отсутствуют

Подробные технические данные

General
Complete name : Внимание, ёлка! (1983).avi
Format : AVI
Format/Info : Audio Video Interleave
File size : 117 MiB
Duration : 9mn 11s
Overall bit rate : 1 783 Kbps
Writing application : MEncoder SVN-r30881(20100311-gcc4.3.3)
Writing library : VirtualDub build 35491/release
Video
ID : 0
Format : MPEG-4 Visual
Format profile : Advanced Simple@L4
Format settings, BVOP : 2
Format settings, QPel : No
Format settings, GMC : No warppoints
Format settings, Matrix : Default (H.263)
Codec ID : XVID
Codec ID/Hint : XviD
Duration : 9mn 11s
Bit rate : 1 581 Kbps
Width : 576 pixels
Height : 432 pixels
Display aspect ratio : 4:3
Frame rate : 25.000 fps
Color space : YUV
Chroma subsampling : 4:2:0
Bit depth : 8 bits
Scan type : Progressive
Compression mode : Lossy
Bits/(Pixel*Frame) : 0.254
Stream size : 104 MiB (89%)
Writing library : XviD 73
Audio
ID : 1
Format : MPEG Audio
Format version : Version 1
Format profile : Layer 3
Mode : Joint stereo
Mode extension : MS Stereo
Codec ID : 55
Codec ID/Hint : MP3
Duration : 9mn 11s
Bit rate mode : Constant
Bit rate : 192 Kbps
Channel(s) : 2 channels
Sampling rate : 44.1 KHz
Compression mode : Lossy
Stream size : 12.6 MiB (11%)
Alignment : Split accross interleaves
Interleave, duration : 40 ms (1.00 video frame)
Interleave, preload duration : 500 ms
Writing library : LAME3.98

Скриншоты

[cybertorrent.ru].t180.torrent 
Торрент: Зарегистрирован [ 2019-03-18 10:04 ] · 91831CC766BCEA1059F46C3B0BC2A62225D034EA

Скачать .torrent

Скачать

19 KB

Статус: проверено
Скачан: 0 раз
Размер: 117 MB
terms.php
[Профиль] [ЛС]
Показать сообщения:    
Ответить на тему

Текущее время: 19-Июн 23:10

Часовой пояс: UTC ± 0



Вы не можете начинать темы
Вы не можете отвечать на сообщения
Вы не можете редактировать свои сообщения
Вы не можете удалять свои сообщения
Вы не можете голосовать в опросах
Вы не можете прикреплять файлы к сообщениям
Вы можете скачивать файлы