Новогоднее приключение Муви (Борис Волков) [1993, Украина, мультфильм, WEBRip] original + rus sub

Ответить на тему
Статистика раздачи
Размер:  54 MB   |    Зарегистрирован:  5 месяцев   |    Скачан:  0 раз

Полного источника не было: Никогда

   
 
Автор Сообщение

xelon ®

Пол: Не указан

Стаж: 5 месяцев 6 дней

Сообщений: 94

Создавать темы 18-Мар-2019 10:01

[Цитировать]

Новогоднее приключение Муви
Страна: Украина
Жанр: мультфильм
Продолжительность: 00:05:39
Год выпуска: 1993
Перевод: субтитры (alex.n42)
Русские субтитры: есть
Режиссёр: Борис Волков
Описание: Первый мультфильм о приключениях собачки по имени Муви.
Под Новый Год Муви спасает подарки Деда Мороза от котов-хулиганов и получает приглашение пойти на праздник в роли Снегурочки.
Следующие фильмы из этой серии:
Муви - няня (1994) - http://cybertorrent.ru/forum/viewtopic.php?t=5667794
Ралли (1994) - http://cybertorrent.ru/forum/viewtopic.php?t=5668282
Сафари (1996) - http://cybertorrent.ru/forum/viewtopic.php?t=5669637
Качество: WEBRip
Формат: AVI
Видео: 1194 kbps, 592х464 (1.276), 25.000 fps, MPEG-4 Visual (XviD)
Аудио: 128 kbps, 44.1 kHz, 2 channels, MPEG Audio (MP3)
Субтитры: softsub (SRT)

Подробные технические данные

General
Complete name : Новогоднее приключение Муви (1993).avi
Format : AVI
Format/Info : Audio Video Interleave
File size : 53.9 MiB
Duration : 5mn 39s
Overall bit rate : 1 332 Kbps
Writing application : VirtualDubMod 1.5.10.2 (build 2540/release)
Writing library : VirtualDubMod build 2540/release
Video
ID : 0
Format : MPEG-4 Visual
Format profile : Advanced Simple@L4
Format settings, BVOP : 2
Format settings, QPel : No
Format settings, GMC : No warppoints
Format settings, Matrix : Default (H.263)
Codec ID : XVID
Codec ID/Hint : XviD
Duration : 5mn 39s
Bit rate : 1 194 Kbps
Width : 592 pixels
Height : 464 pixels
Display aspect ratio : 1.276
Frame rate : 25.000 fps
Color space : YUV
Chroma subsampling : 4:2:0
Bit depth : 8 bits
Scan type : Progressive
Compression mode : Lossy
Bits/(Pixel*Frame) : 0.174
Stream size : 48.3 MiB (90%)
Writing library : XviD 73
Audio
ID : 1
Format : MPEG Audio
Format version : Version 1
Format profile : Layer 3
Codec ID : 55
Codec ID/Hint : MP3
Duration : 5mn 39s
Bit rate mode : Constant
Bit rate : 128 Kbps
Channel(s) : 2 channels
Sampling rate : 44.1 KHz
Compression mode : Lossy
Stream size : 5.18 MiB (10%)
Alignment : Split accross interleaves
Interleave, duration : 40 ms (1.00 video frame)
Interleave, preload duration : 500 ms

Скриншоты

[cybertorrent.ru].t181.torrent 
Торрент: Зарегистрирован [ 2019-03-18 10:04 ] · 08D2A8FE35CE0D07685AC3EE1EC493AE211A039C

Скачать .torrent

Скачать

18 KB

Статус: проверено
Скачан: 0 раз
Размер: 54 MB
terms.php
[Профиль] [ЛС]
Показать сообщения:    
Ответить на тему

Текущее время: 19-Авг 03:39

Часовой пояс: UTC ± 0



Вы не можете начинать темы
Вы не можете отвечать на сообщения
Вы не можете редактировать свои сообщения
Вы не можете удалять свои сообщения
Вы не можете голосовать в опросах
Вы не можете прикреплять файлы к сообщениям
Вы можете скачивать файлы