Неподдающиеся (Юрий Чулюкин) [1959, комедия, SATRip] + Sub Rus

Ответить на тему
Статистика раздачи
Размер:  1,37 GB   |    Зарегистрирован:  5 месяцев   |    Скачан:  0 раз

Полного источника не было: Никогда

   
 
Автор Сообщение

edich ®

Пол: Не указан

Стаж: 5 месяцев 6 дней

Сообщений: 157

Создавать темы 18-Мар-2019 10:01

[Цитировать]

Неподдающиеся
Студия: Мосфильм
Жанр: комедия
Год выпуска: 1959
Продолжительность: 01:15:25
Режиссер: Юрий Чулюкин
В ролях: Надежда Румянцева, Юрий Белов, Алексей Кожевников, Владимир Козлов, Светлана Харитонова, Юрий Никулин ст., Владимир Земляникин, Вера Карпова, Валерий Егоров, Константин Нассонов, Иван Каширин, Сергей Филиппов, Лилия Гриценко, Нина Агапова, Евгений Быкадоров, Николай Курочкин, Анатолий Кузнецов, Леонид Маренников, Александр Смирнов (I), Зинаида Тараховская, Виктор Терехов, Владимир Пицек, Маргарита Жарова
Описание: Из-за двух непутёвых и ветреных весельчаков мучается целая молодёжная бригада. Перевоспитать оболтусов доверено комсомолке Наде. Она берётся за порученное дело с настоящим энтузиазмом: водит их на лекции об обитателях морского дна, читает "Обломова", пробует отучить пить и курить. Но после того как "неподдающиеся" обводят её несколько раз вокруг пальца, Надя осознаёт, что обычные методы здесь не подходят...
Дополнительная информация:
Автор релиза -
Источник субтитров и видео для рипа - DVB 576i TS - моя запись с канала "ТВ Центр"
Редактор русских субтитров - Галкина Т.Е. / "ТВ Центр", 2017г.



Сэмпл: http://multi-up.com/1219147
Рекламы нет!
Качество видео: SATRip
Формат видео: AVI
Видео: XviD, 720x432 (5:3), 2405 kbps, 25.000 fps, 0.301 bit/pixel
Аудио: Русский АC3, 48000 Гц, 2ch, 192 kbps
Формат субтитров: softsub (SRT) - внешние

MediaInfo

Общее
Полное имя : D:\Неподдающиеся.1959.SATRip-ylnian\Неподдающиеся.1959.SATRip-ylnian.avi
Формат : AVI
Формат/Информация : Audio Video Interleave
Размер файла : 1,37 Гбайт
Продолжительность : 1 ч. 15 м.
Общий поток : 2606 Кбит/сек
Программа кодирования : VirtualDubMod 1.5.10.3 | www.virtualdub-fr.org || (build 2550/release)
Библиотека кодирования : VirtualDubMod build 2550/release
Видео
Идентификатор : 0
Формат : MPEG-4 Visual
Профиль формата : Advanced Simple@L5
Настройки формата : BVOP1 / Custom Matrix
Параметр BVOP формата : 1
Параметр QPel формата : Нет
Параметр GMC формата : Без точки перехода
Параметр матрицы формата : Выборочная
Идентификатор кодека : XVID
Идентификатор кодека/Подсказка : XviD
Продолжительность : 1 ч. 15 м.
Битрейт : 2405 Кбит/сек
Ширина : 720 пикселей
Высота : 432 пикселя
Соотношение сторон : 5:3
Частота кадров : 25,000 кадров/сек
Цветовое пространство : YUV
Субдискретизация насыщенности : 4:2:0
Битовая глубина : 8 бит
Тип развёртки : Прогрессивная
Метод сжатия : С потерями
Бит/(Пиксели*Кадры) : 0.309
Размер потока : 1,27 Гбайт (92%)
Библиотека кодирования : XviD 67
Аудио
Идентификатор : 1
Формат : AC-3
Формат/Информация : Audio Coding 3
Коммерческое название : Dolby Digital
Идентификатор кодека : 2000
Продолжительность : 1 ч. 15 м.
Вид битрейта : Постоянный
Битрейт : 192 Кбит/сек
Каналы : 2 канала
Channel layout : L R
Частота : 48,0 КГц
Частота кадров : 31,250 кадров/сек (1536 SPF)
Битовая глубина : 16 бит
Метод сжатия : С потерями
Размер потока : 104 Мбайт (7%)
Выравнивание : Разделение по промежуткам
Продолжительность промежутка : 40 мс. (1,00 видеокадр)
Время предзагрузки промежутка : 500 мс.
ServiceKind/String : Complete Main
Общее
Полное имя : D:\Неподдающиеся.1959.SATRip-ylnian\Неподдающиеся.1959.SATRip-ylnian_rus.srt
Формат : SubRip
Размер файла : 98,5 Кбайт
Текст
Формат : SubRip
Метод сжатия : Без потерь

Интересно

• Место съёмок - локации для натурных киносъёмок использовались городские парки г. Одессы. Сцена прыжки в воду были сняты в Дюковском парке ул Балковская, 100. Вышка для прыжков в открытый водоем.
• На Всесоюзном кинофестивале в Минске в 1960 году фильм получил первую премию. Также были присуждены вторые премии за лучшее исполнение женской роли Надежде Румянцевой и за лучшее исполнение мужской роли — Юрию Белову.
• Цитаты:
- Видали? / — Женский пол. / — Крупнейшая ошибка моей жизни.
- Ребята, много получили? / — Сколько ни есть, все наши!
- Вы что!? Здесь же нельзя курить! / — А мы не затягиваемся!
- Слушай, Грачкин, у тебя совесть есть? / — А что? Одолжить? Пожалуйста.
- Сделаешь человеку одолжение, он тебе сразу же на голову садится.
- Витя, сделай тёте ручкой!
- Конечно, что ж, не без того ж, оно, конечно, собственно буквально, если поднять вопрос и тут же бросить, потом его поднять и тут же заострить, тогда оно, конечно, что ж! Не без того ж! Тогда оно, конечно, собственно, буквально!
- Он про нас сказал «тю-тю»!
- Толя, ну, что ты стоишь! / - Могу сесть. / - Ну, что ты сел! Встань!

Сравнение

Сравнение с DVDRip-ом - http://screenshotcomparison.com/comparison/126891 - в моём релизе иное наполнение кадра, лучше детализация темных сцен
[cybertorrent.ru].t183.torrent 
Торрент: Зарегистрирован [ 2019-03-18 10:04 ] · EA0C8B6F5CC4A06B5BA64F38EBA6EB11B1F565B5

Скачать .torrent

Скачать

14 KB

Статус: проверено
Скачан: 0 раз
Размер: 1,37 GB
terms.php
[Профиль] [ЛС]
Показать сообщения:    
Ответить на тему

Текущее время: 18-Авг 23:13

Часовой пояс: UTC ± 0



Вы не можете начинать темы
Вы не можете отвечать на сообщения
Вы не можете редактировать свои сообщения
Вы не можете удалять свои сообщения
Вы не можете голосовать в опросах
Вы не можете прикреплять файлы к сообщениям
Вы можете скачивать файлы