Ультравысокая частота / УВЧ / UHF (Джей Леви / Jay Levey) [1989, США, Комедия, HDRip] VO ("Мир-дружба")

Ответить на тему
Статистика раздачи
Размер:  1,37 GB   |    Зарегистрирован:  4 месяца 11 дней   |    Скачан:  0 раз

Полного источника не было: Никогда

   
 
Автор Сообщение

serzh ®

Пол: Не указан

Стаж: 5 месяцев 6 дней

Сообщений: 348

Создавать темы 07-Апр-2019 16:52

[Цитировать]

Ультравысокая частота / УВЧ / UHF
Страна: США
Жанр: Комедия
Год выпуска: 1989
Продолжительность: 01:37:09
Перевод: Одноголосый закадровый "Мир-дружба"
Субтитры: нет
Режиссер: Джей Леви / Jay Levey
В ролях: «Странный Эл» Янкович, Виктория Джексон, Кевин МакКарти, Майкл Ричардс, Дэвид
Бове, Стэнли Брок, Энтони Джиари, Тринидад Сильва, Гедде Ватанабэ, Билли Барти
Описание: Джерри Ньюман получает возможность дать волю своей безудержной фантазии,
используя передачи канала «Канал 62». Именно здесь «звезда» экрана — пародист «Чокнутый Эл»
издевается над самыми известными работами кинематографа — Индианой Джонсом, Рэмбо, Ганди...
Доп. информация: Дорожка с VO синхронизирована и наложена ale_x2008 при помощи Sony Vegas и VirtualDubMod.
За оцифрованную с VHS дорожку благодарим - alenavova

Релиз
Сэмпл: https://yadi.sk/i/TqG5EjWtS_QYpw
Качество видео: HDRip
Формат видео: AVI
Видео: XviD build 73, 720x384 (1.88:1), 23.976 fps, 1814 kbps avg, 0.27 bit/pixel
Аудио: AC3 Dolby Digital, 48000Hz, 2/0 (L,R) ch (mono), 192 kbps avg

MediaInfo

Ультравысокая частота (UHF) [by ale_x2008].avi
Format : AVI
Format/Info : Audio Video Interleave
File size : 1.37 GiB
Duration : 1 h 37 min
Overall bit rate : 2 016 kb/s
Movie name : Ультравысокая частота (UHF) [by ale_x2008]
Director : by ale_x2008
Writing application : VirtualDubMod 1.5.10.2 (build 2540/release)
Copyright : Edich2
Comment : RuTracker.org
Video
ID : 0
Format : MPEG-4 Visual
Format profile : Advanced Simple@L5
Format settings : BVOP1 / Custom Matrix
Format settings, BVOP : 1
Format settings, QPel : No
Format settings, GMC : No warppoints
Format settings, Matrix : Custom
Codec ID : XVID
Codec ID/Hint : XviD
Duration : 1 h 37 min
Bit rate : 1 815 kb/s
Width : 720 pixels
Height : 384 pixels
Display aspect ratio : 1.85:1
Frame rate : 23.976 (24000/1001) FPS
Color space : YUV
Chroma subsampling : 4:2:0
Bit depth : 8 bits
Scan type : Progressive
Compression mode : Lossy
Bits/(Pixel*Frame) : 0.274
Stream size : 1.23 GiB (90%)
Writing library : XviD 73
Audio
ID : 1
Format : AC-3
Format/Info : Audio Coding 3
Codec ID : 2000
Duration : 1 h 37 min
Bit rate mode : Constant
Bit rate : 192 kb/s
Channel(s) : 2 channels
Channel positions : Front: L R
Sampling rate : 48.0 kHz
Frame rate : 31.250 FPS (1536 SPF)
Bit depth : 16 bits
Compression mode : Lossy
Stream size : 133 MiB (10%)
Alignment : Split accross interleaves
Interleave, duration : 42 ms (1.00 video frame)
Interleave, preload duratio : 500 ms
Service kind : Complete Main

Скриншоты


[cybertorrent.ru].t1837.torrent 
Торрент: Зарегистрирован [ 2019-04-07 16:52 ] · 528F2DF4981789596EB4785B7792DF43333EBD58

Скачать .torrent

Скачать

14 KB

Статус: проверено
Скачан: 0 раз
Размер: 1,37 GB
terms.php
[Профиль] [ЛС]
Показать сообщения:    
Ответить на тему

Текущее время: 19-Авг 06:31

Часовой пояс: UTC ± 0



Вы не можете начинать темы
Вы не можете отвечать на сообщения
Вы не можете редактировать свои сообщения
Вы не можете удалять свои сообщения
Вы не можете голосовать в опросах
Вы не можете прикреплять файлы к сообщениям
Вы можете скачивать файлы