Охота на дракона (Латиф Файзиев) [1986, Политический детектив, VHSRip]

Ответить на тему
Статистика раздачи
Размер:  1,37 GB   |    Зарегистрирован:  1 месяц 1 день   |    Скачан:  0 раз

Полного источника не было: Никогда

   
 
Автор Сообщение

edich ®

Пол: Не указан

Стаж: 1 месяц 7 дней

Сообщений: 72

Создавать темы 18-Мар-2019 10:01

[Цитировать]

Охота на дракона
Жанр: Политический детектив
Год выпуска: 1986
Продолжительность: 01:32:30
Режиссёр: Латиф Файзиев
В ролях: Алишер Пирмухамедов (...Саид Ходжаев)
Альберт Филозов (...полковник Берт)
Мирдза Мартинсоне (...Иветта Леденф)
Лембит Ульфсак (...Аллан Мак Ги)
Мартин Вейнманн (...Вил Николс)
Мартиньш Вердыньш (...Жермен Кавалье)
Интс Буранс (...доктор Иглесиас)
Баходыр Юлдашев (...Карлос)
Борис Зайденберг (...Брокман)
Николай Бриллинг (...Кроуфорд)
Описание: Центральноамериканская страна Гуадиана решила встать на путь социалистического развития. Спецслужбы США пытаются свергнуть народно-революционное правительство республики. Для этого на территории сопредельного государства Санто-Рико построен секретный полигон, который используется для управления так называемым «климатическим оружием». Это оружие вызывает ураганы огромной силы, которые обрушиваются на Гуадиану и разрушают экономику страны.
Для исследования причин возникновения ураганов в Гуадиану приезжает советский учёный-метеоролог Саид Ходжаев. Чтобы помешать этому на территорию республики проникает диверсионная группа во главе с полковником Бертом.
Доп. информация: Оцифровка VHS (личный архив) и получение VHSRip alenavova
Эксклюзив для rutracker.org. При размещении данного релиза на других сайтах ссылка на автора
Релиз
Семпл: https://yadi.sk/i/gz1eFB-S2b5yfA
Качество видео: VHSRip
Формат видео: AVI
Видео: 704x528 (1.33:1), 25 fps, XviD build 73 ~1912 kbps avg, 0.20 bit/pixel
Аудио: 48 kHz, AC3 Dolby Digital, 2/0 (L,R) ch, ~192 kbps

MediaInfo

Охота на Дракона [by alenavova].avi
Format : AVI
Format/Info : Audio Video Interleave
File size : 1.37 GiB
Duration : 1 h 32 min
Overall bit rate : 2 114 kb/s
Movie name : Охота на Дракона [by alenavova]
Director : by alenavova
Writing application : VirtualDubMod 1.5.10.3 | www.virtualdub-fr.org || (build 2550/release)
Copyright : Edich2
Comment : RuTracker.org
Video
ID : 0
Format : MPEG-4 Visual
Format profile : Advanced Simple@L5
Format settings : BVOP1 / Custom Matrix
Format settings, BVOP : 1
Format settings, QPel : No
Format settings, GMC : No warppoints
Format settings, Matrix : Custom
Codec ID : XVID
Codec ID/Hint : XviD
Duration : 1 h 32 min
Bit rate : 1 912 kb/s
Width : 704 pixels
Height : 528 pixels
Display aspect ratio : 4:3
Frame rate : 25.000 FPS
Color space : YUV
Chroma subsampling : 4:2:0
Bit depth : 8 bits
Scan type : Progressive
Compression mode : Lossy
Bits/(Pixel*Frame) : 0.206
Stream size : 1.24 GiB (90%)
Writing library : XviD 73
Audio
ID : 1
Format : AC-3
Format/Info : Audio Coding 3
Codec ID : 2000
Duration : 1 h 32 min
Bit rate mode : Constant
Bit rate : 192 kb/s
Channel(s) : 2 channels
Channel positions : Front: L R
Sampling rate : 48.0 kHz
Frame rate : 31.250 FPS (1536 SPF)
Bit depth : 16 bits
Compression mode : Lossy
Stream size : 127 MiB (9%)
Alignment : Split accross interleaves
Interleave, duration : 40 ms (1.00 video frame)
Interleave, preload duratio : 500 ms
Service kind : Complete Main

Скриншоты


Если ваш рейтинг упадет ниже 0,3, вы не сможете скачивать торренты! Подробнее о рейтинге.

[cybertorrent.ru].t185.torrent 
Торрент: Зарегистрирован [ 2019-03-18 10:04 ] · FFAC7DB8C7A836C02B689F140D64B2E11EE8258C

Скачать .torrent

Скачать

14 KB

Статус: проверено
Скачан: 0 раз
Размер: 1,37 GB
terms.php
[Профиль] [ЛС]
Показать сообщения:    
Ответить на тему

Текущее время: 20-Апр 01:02

Часовой пояс: UTC ± 0



Вы не можете начинать темы
Вы не можете отвечать на сообщения
Вы не можете редактировать свои сообщения
Вы не можете удалять свои сообщения
Вы не можете голосовать в опросах
Вы не можете прикреплять файлы к сообщениям
Вы можете скачивать файлы