Утомленные солнцем (Никита Михалков) [1994, драма, военный, история, WEB-DLRip]

Ответить на тему
Статистика раздачи
Размер:  1,46 GB   |    Зарегистрирован:  5 месяцев 6 дней   |    Скачан:  0 раз

Полного источника не было: Никогда

   
 
Автор Сообщение

Rodin ®

Пол: Не указан

Стаж: 6 месяцев 2 дня

Сообщений: 262

Создавать темы 08-Апр-2019 17:19

[Цитировать]

Утомленные солнцем
Год выпуска: 1994
Жанр: драма, военный, история
Продолжительность: 02:21:54.759 (212869 frames)
Субтитры: нет
Режиссер: Никита Михалков
В ролях: Олег Меньшиков, Никита Михалков, Ингеборга Дапкунайте, Надежда Михалкова, Андре Умански, Вячеслав Тихонов, Светлана Крючкова, Владимир Ильин, Алла Казанская, Нина Архипова
Описание: Солнечный летний день 1936 года. Молодая страна, полная энтузиазма, празднует 4-ю годовщину сталинского дирижаблестроения. Легендарный комдив Котов и его большая шумная семья отдыхают на даче. В старом доме собралась тьма народу: жена-красавица, непоседа-дочь, тесть — известный русский дирижер, родственники и друзья, домработницы и соседи. Веселье бьет через край, и мысль, что что-то в жизни может измениться, покажется всем абсурдом. Они все будут счастливы вечно! И никто, даже мудрый Котов, не хочет верить в неизбежное. В то, что этот солнечный день кончится — и не повторится уже никогда.
Качество: WEB-DLRip
Формат: AVI
Видео кодек: XviD
Аудио кодек: АС3
Видео: 720x400 (1.80:1), 25 fps, XviD build 73 ~1269 kbps avg, 0.18 bit/pixel
Аудио: 48 kHz, AC3 Dolby Digital, 2/0 (L,R) ch, ~192.00 kbps avg

Медиаинфо

General
Complete name : E:\004 Мои раздачи\Утомленные солнцем 1,46\utomlennye_solncem_1.46_by_bm11.avi
Format : AVI
Format/Info : Audio Video Interleave
File size : 1.46 GiB
Duration : 2h 21mn
Overall bit rate : 1 471 Kbps
Director : bm11
Writing application : VirtualDubMod 1.5.10.3 | www.virtualdub-fr.org || (build 2550/release)
Video
ID : 0
Format : MPEG-4 Visual
Format profile : Advanced Simple@L5
Format settings, BVOP : 1
Format settings, QPel : No
Format settings, GMC : No warppoints
Format settings, Matrix : Custom
Codec ID : XVID
Codec ID/Hint : XviD
Duration : 2h 21mn
Bit rate : 1 270 Kbps
Width : 720 pixels
Height : 400 pixels
Display aspect ratio : 16:9
Frame rate : 25.000 fps
Color space : YUV
Chroma subsampling : 4:2:0
Bit depth : 8 bits
Scan type : Progressive
Compression mode : Lossy
Bits/(Pixel*Frame) : 0.176
Stream size : 1.26 GiB (86%)
Writing library : XviD 73
Audio
ID : 1
Format : AC-3
Format/Info : Audio Coding 3
Mode extension : CM (complete main)
Format settings, Endianness : Big
Codec ID : 2000
Duration : 2h 21mn
Bit rate mode : Constant
Bit rate : 192 Kbps
Channel(s) : 2 channels
Channel positions : Front: L R
Sampling rate : 48.0 KHz
Frame rate : 31.250 fps (1536 spf)
Compression mode : Lossy
Stream size : 195 MiB (13%)
Alignment : Split accross interleaves
Interleave, duration : 40 ms (1.00 video frame)
Interleave, preload duratio : 500 ms
[cybertorrent.ru].t1855.torrent 
Торрент: Зарегистрирован [ 2019-04-08 17:20 ] · 52EEDF9B918BB7DCEFF771B0B161FC238D7A7CB6

Скачать .torrent

Скачать

15 KB

Статус: проверено
Скачан: 0 раз
Размер: 1,46 GB
terms.php
[Профиль] [ЛС]
Показать сообщения:    
Ответить на тему

Текущее время: 15-Сен 09:39

Часовой пояс: UTC ± 0



Вы не можете начинать темы
Вы не можете отвечать на сообщения
Вы не можете редактировать свои сообщения
Вы не можете удалять свои сообщения
Вы не можете голосовать в опросах
Вы не можете прикреплять файлы к сообщениям
Вы можете скачивать файлы

Партнеры

Выражаем благодарность всем людям, внесшим вклад в наш сайт в далёком прошлом. Мы помним Вас, гордимся Вами и ждём Вас обратно!

Интересное в сети