Мертвый сон / Dead Sleep (Алек Миллз / Alec Mills) [1990, Австралия, Триллер, DVDRip-AVC] AVO (Антон Алексеев) + Original Eng

Ответить на тему
Статистика раздачи
Размер:  1,41 GB   |    Зарегистрирован:  4 месяца 10 дней   |    Скачан:  0 раз

Полного источника не было: Никогда

   
 
Автор Сообщение

serzh ®

Пол: Не указан

Стаж: 5 месяцев 6 дней

Сообщений: 348

Создавать темы 08-Апр-2019 17:19

[Цитировать]

Мертвый сон / Dead Sleep
Страна: Австралия
Жанр: Триллер
Год выпуска: 1990
Продолжительность: 01:29:37
Перевод: Авторский (одноголосый закадровый) Антон Алексеев
Субтитры: нет
Оригинальная аудиодорожка: английский
Режиссер: Алек Миллз / Alec Mills
В ролях: Линда Блэр
Тони Боннер
Эндрю Бут
Кристин Амор
Sueyan Cox
Брайан Молл
Vassy Cotsopoulos
Пета Даунс
Крэйг Кронин
Сьюзи МакКензи
Описание: Мэгги устраивается медсестрой в клинику для душевнобольных, врачи которой применяют экспериментальную методику лечения: пациенты сначала вгоняются в коматозное состояние, а уж затем подвергаются электрошоковой терапии. Вскоре Мэгги убеждается, что у этой продвинутой методики «глубокого сна», как её называют экспериментаторы, имеется один серьёзный недостаток — слишком высокий уровень смертности среди больных.
Доп. информация: Звуковая дорожка А. Алексеева снята и синхронизирована мною с VHS
Видеоряд найден в сети
Сэмпл: https://yadi.sk/i/GvDflGm1CYlm6A
Качество видео: DVDRip-AVC
Формат видео: MKV
Видео: 624x480, 23.976 fps ,AVC, 1 800 Kbps
Аудио: AC3 , 48 kHz , 192.00 kbps avg , 2/0 (L,R)
Аудио 2: AC3 , 48 kHz , 256.00 kbps avg , 2/0 (L,R)

MediaInfo

Complete name Мёртвый сон - Dead Sleep 1990 (Alekseev).mkv
Format : Matroska
Format version : Version 2
File size : 1.41 GiB
Duration : 1h 29mn
Overall bit rate : 2 250 Kbps
Encoded date : UTC 2019-04-07 17:50:44
Writing application : mkvmerge v3.3.0 ('Language') built on Mar 24 2010 14:59:24
Writing library : libebml v0.8.0 + libmatroska v0.9.0
Video
ID : 1
Format : AVC
Format/Info : Advanced Video Codec
Format profile : High@L3.1
Format settings, CABAC : Yes
Format settings, ReFrames : 9 frames
Codec ID : V_MPEG4/ISO/AVC
Duration : 1h 29mn
Bit rate : 1 800 Kbps
Width : 624 pixels
Height : 480 pixels
Display aspect ratio : 4:3
Frame rate mode : Constant
Frame rate : 23.976 (24000/1001) fps
Color space : YUV
Chroma subsampling : 4:2:0
Bit depth : 8 bits
Scan type : Progressive
Bits/(Pixel*Frame) : 0.251
Stream size : 1.10 GiB (78%)
Writing library : x264 core 120
Encoding settings : cabac=1 / ref=9 / deblock=1:-2:-2 / analyse=0x3:0x113 / me=umh / subme=9 / psy=1 / psy_rd=1.00:0.00 / mixed_ref=1 / me_range=24 / chroma_me=1 / trellis=2 / 8x8dct=1 / cqm=0 / deadzone=21,11 / fast_pskip=1 / chroma_qp_offset=-2 / threads=6 / sliced_threads=0 / nr=0 / decimate=1 / interlaced=0 / bluray_compat=0 / constrained_intra=0 / bframes=5 / b_pyramid=2 / b_adapt=2 / b_bias=0 / direct=3 / weightb=1 / open_gop=0 / weightp=2 / keyint=240 / keyint_min=24 / scenecut=40 / intra_refresh=0 / rc_lookahead=60 / rc=2pass / mbtree=1 / bitrate=1800 / ratetol=1.0 / qcomp=0.60 / qpmin=3 / qpmax=69 / qpstep=4 / cplxblur=20.0 / qblur=0.5 / ip_ratio=1.40 / aq=1:1.00
Language : English
Default : Yes
Forced : No
Color range : Limited
Color primaries : BT.601 NTSC
Transfer characteristics : BT.709
Matrix coefficients : BT.601
Audio #1
ID : 2
Format : AC-3
Format/Info : Audio Coding 3
Mode extension : CM (complete main)
Format settings, Endianness : Big
Codec ID : A_AC3
Duration : 1h 29mn
Bit rate mode : Constant
Bit rate : 192 Kbps
Channel(s) : 2 channels
Channel positions : Front: L R
Sampling rate : 48.0 KHz
Frame rate : 31.250 fps (1536 spf)
Compression mode : Lossy
Stream size : 123 MiB (9%)
Default : Yes
Forced : No
Audio #2
ID : 3
Format : AC-3
Format/Info : Audio Coding 3
Mode extension : CM (complete main)
Format settings, Endianness : Big
Codec ID : A_AC3
Duration : 1h 29mn
Bit rate mode : Constant
Bit rate : 256 Kbps
Channel(s) : 2 channels
Channel positions : Front: L R
Sampling rate : 48.0 KHz
Frame rate : 31.250 fps (1536 spf)
Compression mode : Lossy
Stream size : 164 MiB (11%)
Default : No
Forced : No
[cybertorrent.ru].t1857.torrent 
Торрент: Зарегистрирован [ 2019-04-08 17:20 ] · 80E8DA678EBA1D1F63CD55B3DC299A5F706AC0F5

Скачать .torrent

Скачать

15 KB

Статус: проверено
Скачан: 0 раз
Размер: 1,41 GB
terms.php
[Профиль] [ЛС]
Показать сообщения:    
Ответить на тему

Текущее время: 19-Авг 06:09

Часовой пояс: UTC ± 0



Вы не можете начинать темы
Вы не можете отвечать на сообщения
Вы не можете редактировать свои сообщения
Вы не можете удалять свои сообщения
Вы не можете голосовать в опросах
Вы не можете прикреплять файлы к сообщениям
Вы можете скачивать файлы