Смертельное добро / Sometimes the Good Kill (Филипп Ганьон / Philippe Gagnon) [2017, Канада, триллер, драма, криминал, детектив, HDTVRip] MVO (ViP Premiere)

Ответить на тему
Статистика раздачи
Размер:  1,37 GB   |    Зарегистрирован:  4 месяца 15 дней   |    Скачан:  0 раз

Полного источника не было: Никогда

   
 
Автор Сообщение

солнышко ®

Пол: Не указан

Стаж: 5 месяцев 12 дней

Сообщений: 543

Создавать темы 08-Апр-2019 17:19

[Цитировать]

Смертельное добро / Sometimes the Good Kill
Страна: Канада
Жанр: триллер, драма, криминал, детектив
Год выпуска: 2017
Продолжительность: 01:26:48
Перевод: Профессиональный (многоголосый закадровый) ViP Premiere
Субтитры: нет
Оригинальная аудиодорожка: нет
Режиссер: Филипп Ганьон / Philippe Gagnon
В ролях: Сьюзи Абромейт
Аманда Бругел
Эллисон Хоссак
Дебора Гровер
Криста Бриджес
Юлия Пятраускас
Нора МакЛеллан
Lisa Truong
Стюарт Хьюз
Карл Алакки
Описание: Безмятежность уединенного женского монастыря нарушают сразу два убийства. Поиски убийцы поручают монахине с непростым прошлым - единственной, кто способен продраться сквозь паутину лжи и загадок, чтобы предотвратить новые смерти.
Сэмпл: http://multi-up.com/1228835
Качество видео: HDTVRip
Формат видео: AVI
Видео: MPEG4, XviD, 720x400 (16:9), 25.000 fps, 2 061 Kbps (0.286 bit/pixel)
Аудио: AC-3, 48.0 KHz, 2 ch, 192 Kbps, CBR

MediaInfo

Общее
Полное имя : F:\Смертельное добро.avi
Формат : AVI
Формат/Информация : Audio Video Interleave
Размер файла : 1,37 Гбайт
Продолжительность : 1 ч. 26 м.
Общий поток : 2263 Кбит/сек
Название фильма : Смертельное добро / Sometimes the Good Kill (2017)
Программа кодирования : VirtualDubMod 1.5.10.2 (build 2540/release)
Библиотека кодирования : VirtualDubMod build 2540/release
Авторское право : miha2154
Видео
Идентификатор : 0
Формат : MPEG-4 Visual
Профиль формата : Advanced Simple@L5
Настройки формата : BVOP1 / Custom Matrix
Параметр BVOP формата : 1
Параметр QPel формата : Нет
Параметр GMC формата : Без точки перехода
Параметр матрицы формата : Выборочная
Идентификатор кодека : XVID
Идентификатор кодека/Подсказка : XviD
Продолжительность : 1 ч. 26 м.
Битрейт : 2061 Кбит/сек
Ширина : 720 пикселей
Высота : 400 пикселей
Соотношение сторон : 16:9
Частота кадров : 25,000 кадров/сек
Цветовое пространство : YUV
Субдискретизация насыщенности : 4:2:0
Битовая глубина : 8 бит
Тип развёртки : Прогрессивная
Метод сжатия : С потерями
Бит/(Пиксели*Кадры) : 0.286
Размер потока : 1,25 Гбайт (91%)
Библиотека кодирования : XviD 65
Аудио
Идентификатор : 1
Формат : AC-3
Формат/Информация : Audio Coding 3
Коммерческое название : Dolby Digital
Идентификатор кодека : 2000
Продолжительность : 1 ч. 26 м.
Вид битрейта : Постоянный
Битрейт : 192 Кбит/сек
Каналы : 2 канала
Channel layout : L R
Частота : 48,0 КГц
Частота кадров : 31,250 кадров/сек (1536 SPF)
Битовая глубина : 16 бит
Метод сжатия : С потерями
Размер потока : 119 Мбайт (8%)
Выравнивание : Разделение по промежуткам
Продолжительность промежутка : 40 мс. (1,00 видеокадр)
Время предзагрузки промежутка : 500 мс.
Заголовок : Профессиональный (многоголосый, закадровый)
ServiceKind/String : Complete Main

Скриншот c названием фильма

Скриншоты


Если ваш рейтинг упадет ниже 0,3, вы не сможете скачивать торренты! Подробнее о рейтинге.

[cybertorrent.ru].t1859.torrent 
Торрент: Зарегистрирован [ 2019-04-08 17:20 ] · 5BE6616F445E7CB7E1C1A609E7691542C78A1D63

Скачать .torrent

Скачать

14 KB

Статус: проверено
Скачан: 0 раз
Размер: 1,37 GB
terms.php
[Профиль] [ЛС]
Показать сообщения:    
Ответить на тему

Текущее время: 24-Авг 15:26

Часовой пояс: UTC ± 0



Вы не можете начинать темы
Вы не можете отвечать на сообщения
Вы не можете редактировать свои сообщения
Вы не можете удалять свои сообщения
Вы не можете голосовать в опросах
Вы не можете прикреплять файлы к сообщениям
Вы можете скачивать файлы