Микко из Тампере просит совета (Юрий Чулюкин, Георгий Кушниренко) [1986, детский, семейный, музыкальная комедия, DVB]

Ответить на тему
Статистика раздачи
Размер:  3,73 GB   |    Зарегистрирован:  5 месяцев   |    Скачан:  0 раз

Полного источника не было: Никогда

   
 
Автор Сообщение

edich ®

Пол: Не указан

Стаж: 5 месяцев 6 дней

Сообщений: 157

Создавать темы 18-Мар-2019 10:01

[Цитировать]

Микко из Тампере просит совета
Жанр: детский, семейный, музыкальная комедия
Год выпуска: 1986
Продолжительность: 01:35:06
Режиссёр: Юрий Чулюкин, Георгий Кушниренко
В ролях: Юрий Куклачёв, Анне Вески, Амаяк Акопян, Эско Ройне, Улла-Майя Силкавире, Раймо Гренберг, Улла Тапанинен, Рики Сорса, Марти Сурия
Описание: Фильм с участием Юрия Куклачёва о дружбе между гастролирующими по Финляндии советскими артистами и финскими детьми, участниками самодеятельного музыкального ансамбля города Тампере. Микко по телевизору увидел выступление клоуна Куклачёва с его дрессированными кошками. В восторге мальчик написал Куклачёву письмо, где рассказал, что тоже хочет дрессировать своего домашнего кота, но не знает, как это правильно делать с кошками.
Доп. информация: Запись потока *.ts со спутника Экспресс АМ7, 40° в.д., ремукс в *.mkv программой VideoReDo.
Качество видео: DVB
Формат видео: MKV
Видео: MPEG2 Video, 720(1024)x576 (4:3), 25,000 кадров/сек, 5249 Кбит/сек
Аудио: MPEG Audio, 48,0 КГц, 256 Кбит/сек, 2 канала

MediaInfo

бщее
Уникальный идентификатор : 76454487486948018696838508010409451567 (0x3984994350897399D82F83A4E8E6602F)
Полное имя : I:\НАШЕ_К_О\МИККО ИЗ ТАМПЕРЕ ПРОСИТ СОВЕТА 16Х9 (Kultura 40).mkv
Формат : Matroska
Версия формата : Version 2
Размер файла : 3,73 Гбайт
Продолжительность : 1 ч. 35 м.
Режим общего битрейта : Переменный
Общий поток : 5617 Кбит/сек
Программа кодирования : Lavf52.64.2
Библиотека кодирования : Lavf52.64.2
Видео
Идентификатор : 1
Формат : MPEG Video
Версия формата : Version 2
Профиль формата : Main@Main
Параметр BVOP формата : Да
Параметр матрицы формата : Выборочная
Параметр GOP формата : M=3, N=15
Структура изображения : Frame
Идентификатор кодека : V_MPEG2
Идентификатор кодека/Информация : MPEG 1 or 2 Video
Продолжительность : 1 ч. 35 м.
Вид битрейта : Переменный
Битрейт : 5250 Кбит/сек
Максимальный битрейт : 15,0 Мбит/сек
Ширина : 720 пикселей
Высота : 576 пикселей
Соотношение сторон : 16:9
Соотношение сторон в оригинале : 16:9
Режим частоты кадров : Постоянный
Частота кадров : 25,000 кадров/сек
Стандарт вещания : PAL
Цветовое пространство : YUV
Субдискретизация насыщенности : 4:2:0
Битовая глубина : 8 бит
Тип развёртки : Чересстрочная
Порядок развёртки : Верхнее поле первое
Метод сжатия : С потерями
Бит/(Пиксели*Кадры) : 0.506
Размер потока : 3,49 Гбайт (93%)
Default : Да
Forced : Нет
Аудио
Идентификатор : 2
Формат : MPEG Audio
Версия формата : Version 1
Профиль формата : Layer 2
Идентификатор кодека : A_MPEG/L2
Идентификатор кодека/Подсказка : MP2
Продолжительность : 1 ч. 35 м.
Вид битрейта : Постоянный
Битрейт : 256 Кбит/сек
Каналы : 2 канала
Частота : 48,0 КГц
Метод сжатия : С потерями
Задержка видео : 19 мс.
Размер потока : 174 Мбайт (5%)
Язык : English
Default : Да
Forced : Нет
[cybertorrent.ru].t186.torrent 
Торрент: Зарегистрирован [ 2019-03-18 10:04 ] · A097C8C2D355398FC05FBA0081CCF199CDBE7876

Скачать .torrent

Скачать

19 KB

Статус: проверено
Скачан: 0 раз
Размер: 3,73 GB
terms.php
[Профиль] [ЛС]
Показать сообщения:    
Ответить на тему

Текущее время: 19-Авг 00:14

Часовой пояс: UTC ± 0



Вы не можете начинать темы
Вы не можете отвечать на сообщения
Вы не можете редактировать свои сообщения
Вы не можете удалять свои сообщения
Вы не можете голосовать в опросах
Вы не можете прикреплять файлы к сообщениям
Вы можете скачивать файлы