Ватерлоо / Waterloo (Сергей Бондарчук / Sergei Bondarchuk) [1970, СССР, Италия, исторический, WEBRip] MVO (Мосфильм) + VO (Бондарчук) + AVO (Живов) + AVO (Иванов) + Sub Rus, Eng + Original Eng

Ответить на тему
Статистика раздачи
Размер:  1,98 GB   |    Зарегистрирован:  3 месяца 1 день   |    Скачан:  0 раз

Полного источника не было: Никогда

   
 
Автор Сообщение

edich ®

Пол: Не указан

Стаж: 3 месяца 7 дней

Сообщений: 92

Создавать темы 18-Мар-2019 10:01

[Цитировать]

Ватерлоо / Waterloo
Страна: СССР, Италия
Жанр: исторический
Год выпуска: 1970
Продолжительность: 02:08:26
Перевод: Профессиональный (многоголосый закадровый) - Мосфильм, 2006 г.
Перевод: Студийный (одноголосый закадровый) - Сергей Бондарчук (советский прокатный вариант)
Перевод: Авторский (одноголосый закадровый) - Юрий Живов
Перевод: Авторский (одноголосый закадровый) - Михаил Иванов
Субтитры: русские, английские
Оригинальная аудиодорожка: английский
Режиссер: Сергей Бондарчук / Sergei Bondarchuk
В ролях: Род Стайгер, Кристофер Пламмер, Орсон Уэллс, Джек Хокинс, Вирджиния Маккенна, Дэн О’Херлихи, Руперт Дейвис, Филипп Форке, Джанни Джарко, Иво Джаррани, Йен Огилви, Майкл Уилдинг, Серго Сакариадзе, Теренс Эликзендер, Андрея Кекки, Доунел Доннелли, Шапь Милло, Евгений Самойлов, Олег Видов, Чарлз Борромел, Питер Дейвис, Вероника Де Лаурентис, Владимир Дружников, Уиллофби Грей, Роджер Грин, Орсо Мария Неррини, Ричард Хеффер, Орпцио Орландо, Джон Сейвидент, Джеффри Уикем, Сюзен Вуд, Геннадий Юдин, Изабелла Альбонико, Гульельмо Амбрози, Антонио Анелли, Камилло Анджелини-Рота, Рино Беллини, Вацловас Бледис, Армандо Боттин, Адриан Брайн, Владимир Бутенко, Паул Буткевич, Ланфранко Чеккарелли, Пьетро Чеккарелли, Альдо Чеккони, Массимо Делла Торре, Андреа Досне, Аллан Эллидж, Андреа Эстерхази, Феликс Эйнас, Франко Фантазиа, Гидарино Гиди, Валерий Гурьев, Фред Джэксон, Валентин Коваль, Владимир Левченко, Василий Ливанов, Родольфо Лоди, Жан Луи, Карл Лиепиньск, Олег Михайлов, Ивано Миланов, Борис Молчанов, Виктор Мурганов, Александр Пархоменко, Филиппо Перего, Василий Плаксин, Лев Поляков, Гильяно Раффаэлли, Георгий Рыбаков, Джорджо Скьолетте, Аттилио Северини, Ирина Скобцева, Валентинс Скулме, Уильям Слейтер, Серджо Тестори, Колин Уотсон, Кристиан Янакиев, Ростислав Янковский, Игорь Ясулович, Андрей Юренёв
Описание: Грандиозный фильм с массовыми батальными сценами, посвящённый событиям 1814-15 годов, последовавшим за взятием Парижа русскими войсками. Начинается фильм со сцены первого отречения Наполеона и его отъезда на остров Эльба. Вскоре Наполеон с небольшим отрядом тайно покидает остров Эльба и высаживается на юге Франции. После триумфального похода на Париж он снова становится во главе возрождённой армии и пытается оказать сопротивление коалиции Англии, России и Пруссии. Наполеон одерживает частичную победу над войсками Блюхера, но в битве при Ватерлоо терпит поражение, которое приводит к окончательному падению его империи.
Сэмпл
Качество видео: WEBRip [Waterloo.1970.1080p.WEBRip.x264-JFrog]
Формат видео: AVI
Видео: 720x304 (2.37:1), 25 fps, XviD build 73 ~1231 kbps avg, 0.23 bit/pixel
Аудио: 48 kHz, AC3 Dolby Digital, 2/0 (L,R) ch, ~192 kbps - Мосфильм
Аудио: 48 kHz, AC3 Dolby Digital, 2/0 (L,R) ch, ~192 kbps - С.Бондарчук
отдельными файлами:
Аудио: 48 kHz, AC3 Dolby Digital, 2/0 (L,R) ch, ~192 kbps - Живов
Аудио: 48 kHz, AC3 Dolby Digital, 2/0 (L,R) ch, ~192 kbps - Иванов
Аудио: 48 kHz, AC3 Dolby Digital, 2/0 (L,R) ch, ~192 kbps - оригинал
Формат субтитров: softsub (SRT)

MediaInfo

General
Complete name : H:\Waterloo.1970.webrip_[1.45]_[teko]\Waterloo.1970.webrip_[1.45].avi
Format : AVI
Format/Info : Audio Video Interleave
File size : 1.46 GiB
Duration : 2h 8mn
Overall bit rate : 1 631 Kbps
Writing application : VirtualDubMod 1.5.10.3 | www.virtualdub-fr.org || (build 2550/release)
Writing library : VirtualDubMod build 2550/release
Video
ID : 0
Format : MPEG-4 Visual
Format profile : Advanced Simple@L5
Format settings, BVOP : 2
Format settings, QPel : No
Format settings, GMC : No warppoints
Format settings, Matrix : Custom
Codec ID : XVID
Codec ID/Hint : XviD
Duration : 2h 8mn
Bit rate : 1 232 Kbps
Width : 720 pixels
Height : 304 pixels
Display aspect ratio : 2.35:1
Frame rate : 25.000 fps
Color space : YUV
Chroma subsampling : 4:2:0
Bit depth : 8 bits
Scan type : Progressive
Compression mode : Lossy
Bits/(Pixel*Frame) : 0.225
Stream size : 1.11 GiB (76%)
Writing library : XviD 73
Audio #1
ID : 1
Format : AC-3
Format/Info : Audio Coding 3
Mode extension : CM (complete main)
Format settings, Endianness : Big
Codec ID : 2000
Duration : 2h 8mn
Bit rate mode : Constant
Bit rate : 192 Kbps
Channel(s) : 2 channels
Channel positions : Front: L R
Sampling rate : 48.0 KHz
Frame rate : 31.250 fps (1536 spf)
Compression mode : Lossy
Stream size : 176 MiB (12%)
Alignment : Split accross interleaves
Interleave, duration : 40 ms (1.00 video frame)
Interleave, preload duratio : 500 ms
Audio #2
ID : 2
Format : AC-3
Format/Info : Audio Coding 3
Mode extension : CM (complete main)
Format settings, Endianness : Big
Codec ID : 2000
Duration : 2h 8mn
Bit rate mode : Constant
Bit rate : 192 Kbps
Channel(s) : 2 channels
Channel positions : Front: L R
Sampling rate : 48.0 KHz
Frame rate : 31.250 fps (1536 spf)
Compression mode : Lossy
Stream size : 176 MiB (12%)
Alignment : Split accross interleaves
Interleave, duration : 40 ms (1.00 video frame)
Interleave, preload duratio : 500 ms

Скриншоты

Релиз группы:
--
[cybertorrent.ru].t187.torrent 
Торрент: Зарегистрирован [ 2019-03-18 10:04 ] · 00D08A019693A5889F3804BC12DD9AA743DDDB58

Скачать .torrent

Скачать

21 KB

Статус: проверено
Скачан: 0 раз
Размер: 1,98 GB
terms.php
[Профиль] [ЛС]
Показать сообщения:    
Ответить на тему

Текущее время: 19-Июн 23:37

Часовой пояс: UTC ± 0



Вы не можете начинать темы
Вы не можете отвечать на сообщения
Вы не можете редактировать свои сообщения
Вы не можете удалять свои сообщения
Вы не можете голосовать в опросах
Вы не можете прикреплять файлы к сообщениям
Вы можете скачивать файлы