Зорге / Серии: 1-2 из 12 (Сергей Гинзбург) [2019, биография, драма, HDTVRip]

Ответить на тему
Статистика раздачи
Размер:  1,36 GB   |    Зарегистрирован:  4 месяца 15 дней   |    Скачан:  0 раз

Полного источника не было: Никогда

   
 
Автор Сообщение

sss777sss ®

Пол: Не указан

Стаж: 5 месяцев 12 дней

Сообщений: 410

Создавать темы 09-Апр-2019 15:46

[Цитировать]

Зорге
Год выпуска: 2019
Производство: Star Media, Shanghai Film Group
Жанр: биография, драма
Продолжительность: ~00:49:00 серия
Субтитры: нет
Режиссёр: Сергей Гинзбург
В ролях: Александр Домогаров, Виктория Исакова, Сергей Гинзбург, Андрей Леонов, Юлия Ауг, Анатолий Дзиваев, Сергей Багиров, Василий Мищенко, Андрей Руденский, Кирилл Кузнецов, Анна Бачалова, Александр Никольский , Евгения Бордзиловская, Сергей Бызгу, Игорь Фурманюк, Роман Индык, Анатолий Котенёв, Александр Орав, Павел Капитонов, Александр Зуев, Иван Шибанов, Татьяна Космачёва, Анастасия Цой, Гэ Ян, Дин Фан, Джунсуке Киносита, Шион Накамару, Осаму Ямамото, Мария Ахметзянова, Юрий Лахин, Николай Юшкевич, Роман Хан
Описание: Весна 1941 года. Советский резидент в Японии Рихард Зорге (агентурный псевдоним Рамзай) работает в Токио под видом немецкого журналиста. От посла Германии в Японии Эйгена Отта он узнает, что Гитлер принял решение напасть на СССР. Рихард немедленно сообщает о грозящей опасности в ставку, но точного времени вторжения назвать не может… Москва считает информацию не внушающей доверия, поскольку Зорге находится в опале. Рихард пренебрегает всеми правилами конспирации и шлет радиограммы одну за одной. В итоге его засекает секретная служба Японии, возглавляемая полковником Осаки, который давно охотится на советского резидента.

Реклама: Нет.
Кинопоиск
Все раздачи сериала
Sample
Качество: HDTVRip - olegka7373 (GeneralFilm)
Формат: AVI
Видео кодек: XviD
Аудио кодек: AC3
Видео: 720x400 (1.80:1), 25 fps, XviD, ~1762 kbps avg, 0.24 bit/pixel
Аудио: 48.0 kHz, AC3 Dolby Digital, 2/0 (L,R) ch, ~ 192 kbps

Внимание! Раздача ведётся путём добавления новых серий

Раздача ведётся путём добавления новых серий, при каждом добавлении создаётся новый торрент. Чтобы начать докачку новой серии, пользователям необходимо сделать следующее:
- Остановить скачивание.
- Удалить старый торрент у себя из клиента (старые серии удалять не надо).
- Скачать новый торрент и запустить его у себя в клиенте вместо старого, при этом указать клиенту путь в старую папку куда и должно происходить скачивание новых серий.
Ваш клиент при этом должен произвести хеширование (проверку) старой папки (если не производит сам - помогите ему сделать это), и будет докачивать только те серии которых у вас ещё нет. Старые серии при этом не удаляются, а продолжают раздаваться!
Если вы уже удалили старые серии, то предотвратить повторную закачку старых серий можно, отжав галочку в соответствующих местах при запуске нового торрента. По возможности, желательно не удалять старые серии как можно дольше, чтобы релизер не столько продолжал раздавать старые серии, а смог сконцентрироваться на новых.

MI

General
Complete name : D:\Zorge.HDTVRip.GeneralFilm\01.Zorge.HDTVRip.GeneralFilm.avi
Format : AVI
Format/Info : Audio Video Interleave
File size : 707 MiB
Duration : 49 min 41 s
Overall bit rate : 1 990 kb/s
Writing application : VirtualDubMod 1.5.10.3 | www.virtualdub-fr.org || (build 2550/release)
Writing library : VirtualDubMod build 2550/release
Video
ID : 0
Format : MPEG-4 Visual
Format profile : Advanced Simple@L5
Format settings : BVOP1 / Custom Matrix
Format settings, BVOP : 1
Format settings, QPel : No
Format settings, GMC : No warppoints
Format settings, Matrix : Custom
Codec ID : XVID
Codec ID/Hint : XviD
Duration : 49 min 41 s
Bit rate : 1 788 kb/s
Width : 720 pixels
Height : 400 pixels
Display aspect ratio : 16:9
Frame rate : 25.000 FPS
Color space : YUV
Chroma subsampling : 4:2:0
Bit depth : 8 bits
Scan type : Progressive
Compression mode : Lossy
Bits/(Pixel*Frame) : 0.248
Stream size : 635 MiB (90%)
Writing library : XviD 1.2.1 (UTC 2008-12-04)
Audio
ID : 1
Format : AC-3
Format/Info : Audio Coding 3
Codec ID : 2000
Duration : 49 min 41 s
Bit rate mode : Constant
Bit rate : 192 kb/s
Channel(s) : 2 channels
Channel positions : Front: L R
Sampling rate : 48.0 kHz
Frame rate : 31.250 FPS (1536 SPF)
Bit depth : 16 bits
Compression mode : Lossy
Stream size : 68.2 MiB (10%)
Alignment : Split accross interleaves
Interleave, duration : 40 ms (1.00 video frame)
Interleave, preload duratio : 500 ms
Service kind : Complete Main

Скриншоты


Если ваш рейтинг упадет ниже 0,3, вы не сможете скачивать торренты! Подробнее о рейтинге.

[cybertorrent.ru].t1876.torrent 
Торрент: Зарегистрирован [ 2019-04-09 15:46 ] · 210D29BA8AFD3B11DE653F620F8220E9CC84B0D2

Скачать .torrent

Скачать

14 KB

Статус: проверено
Скачан: 0 раз
Размер: 1,36 GB
terms.php
[Профиль] [ЛС]
Показать сообщения:    
Ответить на тему

Текущее время: 24-Авг 16:13

Часовой пояс: UTC ± 0



Вы не можете начинать темы
Вы не можете отвечать на сообщения
Вы не можете редактировать свои сообщения
Вы не можете удалять свои сообщения
Вы не можете голосовать в опросах
Вы не можете прикреплять файлы к сообщениям
Вы можете скачивать файлы