Иисус: Его жизнь / Jesus: His Life / Сезон: 1 / Серии: 1-4 из 12 (Эшли Пирс, Адриан МакДауэлл) [2019, Великобритания, Драма, WEBRip] MVO (IdeaFilm) + Original

Ответить на тему
Статистика раздачи
Размер:  2,11 GB   |    Зарегистрирован:  4 месяца 8 дней   |    Скачан:  0 раз

Полного источника не было: Никогда

   
 
Автор Сообщение

Рамфоринх ®

Пол: Не указан

Стаж: 5 месяцев 6 дней

Сообщений: 347

Создавать темы 09-Апр-2019 15:46

[Цитировать]

Иисус: Его жизнь / Jesus: His Life- Год выпуска: 2019
Страна: Великобритания
Жанр: Драма
Продолжительность: ~ 00:43:00-Перевод: Профессиональный (многоголосый закадровый) IdeaFilm-Режиссёр: Эшли Пирс, Адриан МакДауэлл-В ролях: Грег Барнетт, Уда Экуафни, Кэсси Брэдли, Адам Айади, Роберт Р. Каргилл, Марк Гудакр, Джон Хопкинс, Амед Хашими, Дэвид Аль-Фами, Дэниэл Бен Зеноу и др.-Описание: Проект представляет зрителям историю жизни Иисуса Христа. Этот человек вошёл в историю и стал основой целой религии. Рассказ о нём ведут представители научно-исторического направления религиозных исследований, которые изучили многие достоверные источники из прошлого, чтобы теперь показать зрителям полную картину происходящего. В центре внимания сюжета оказываются многочисленные данные и события, которые так или иначе связаны с жизнью Иисуса, но о которых простые зрители могли не знать в силу недостатка информации. Однако переводные тексты и многочисленные артефакты и реликвии также заявили о себе и рассказали то, чего раньше мы могли совершенно не знать!
-
Качество: WEBRip (Сэмпл)
Формат: AVI
Видео: XviD, 720x400 (16:9), 23,976 fps, ~1500 kbps, 0.217 bit/pixel
Аудио #1: MP3, 48 kHz, 2 ch, 128 kbps | RUS | IdeaFilm
Аудио #2: MP3, 48 kHz, 2 ch, 128 kbps | ENG | Original
Субтитры: Отсутствуют
Реклама: Отсутствует-[box=#FFFFFF,#000000]Ссылка на предыдущие и альтернативные раздачи[/box]

MediaInfo

Общее
Полное имя : D:\Distributions\Jesus His Life\Jesus.His.Life.S01E01.WEBRip.IdeaFilm.avi
Формат : AVI
Формат/Информация : Audio Video Interleave
Размер файла : 540 Мбайт
Продолжительность : 42 м. 38 с.
Общий поток : 1770 Кбит/сек
Программа кодирования : VirtualDubMod 1.5.10.2 (build 2542/release)
Библиотека кодирования : VirtualDubMod build 2542/release
Видео
Идентификатор : 0
Формат : MPEG-4 Visual
Профиль формата : Advanced Simple@L5
Настройки формата : BVOP1 / Custom Matrix
Параметр BVOP формата : 1
Параметр QPel формата : Нет
Параметр GMC формата : Без точки перехода
Параметр матрицы формата : Выборочная
Идентификатор кодека : XVID
Идентификатор кодека/Подсказка : XviD
Продолжительность : 42 м. 38 с.
Битрейт : 1500 Кбит/сек
Ширина : 720 пикселей
Высота : 400 пикселей
Соотношение сторон : 16:9
Частота кадров : 23,976 (24000/1001) кадра/сек
Цветовое пространство : YUV
Субдискретизация насыщенности : 4:2:0
Битовая глубина : 8 бит
Тип развёртки : Прогрессивная
Метод сжатия : С потерями
Бит/(Пиксели*Кадры) : 0.217
Размер потока : 458 Мбайт (85%)
Библиотека кодирования : XviD 67
Аудио #1
Идентификатор : 1
Формат : MPEG Audio
Версия формата : Version 1
Профиль формата : Layer 3
Настройки формата : Joint stereo / MS Stereo
Идентификатор кодека : 55
Идентификатор кодека/Подсказка : MP3
Продолжительность : 42 м. 38 с.
Вид битрейта : Постоянный
Битрейт : 128 Кбит/сек
Каналы : 2 канала
Частота : 48,0 КГц
Метод сжатия : С потерями
Размер потока : 39,0 Мбайт (7%)
Выравнивание : Разделение по промежуткам
Продолжительность промежутка : 42 мс. (1,00 видеокадр)
Время предзагрузки промежутка : 500 мс.
Аудио #2
Идентификатор : 2
Формат : MPEG Audio
Версия формата : Version 1
Профиль формата : Layer 3
Настройки формата : Joint stereo / MS Stereo
Идентификатор кодека : 55
Идентификатор кодека/Подсказка : MP3
Продолжительность : 42 м. 38 с.
Вид битрейта : Постоянный
Битрейт : 128 Кбит/сек
Каналы : 2 канала
Частота : 48,0 КГц
Метод сжатия : С потерями
Размер потока : 39,0 Мбайт (7%)
Выравнивание : Разделение по промежуткам
Продолжительность промежутка : 42 мс. (1,00 видеокадр)
Время предзагрузки промежутка : 500 мс.

Скриншоты

Раздача ведётся путём добавления новых серий

Когда раздача ведётся путём добавления новых серий, при каждом добавлении создётся новый торрент. Чтобы начать докачку новой серии, пользователям необходимо сделать следующее:
(1) остановить скачивание,
(2) удалить старый торрент у себя из клиента (старые серии удалять не надо),
(3) скачать новый торрент и запустить его у себя в клиенте вместо старого, при этом указать клиенту путь в старую папку, куда и должно происходить скачивание новых серий.
Ваш клиент при этом должен произвести хеширование (проверку) старой папки (если не производит сам - помогите ему сделать это), и будет докачивать только те серии, которых у вас ещё нет. Старые серии при этом не удаляются, а продолжают раздаваться!
Eсли вы уже удалили старые серии, то предотвратить повторную закачку старых серий можно, отжав галочку в соответсвующих местах при запуске нового торрента. По возможности, желательно не удалять старые серии как можно дольше, чтобы релизёр не столько продолжал раздавать старые серии, а смог сконцентрироваться на новых.
[cybertorrent.ru].t1884.torrent 
Торрент: Зарегистрирован [ 2019-04-09 15:46 ] · 7468339AC5A871CF23E20315D75486202A0B2117

Скачать .torrent

Скачать

11 KB

Статус: проверено
Скачан: 0 раз
Размер: 2,11 GB
terms.php
[Профиль] [ЛС]
Показать сообщения:    
Ответить на тему

Текущее время: 18-Авг 14:52

Часовой пояс: UTC ± 0



Вы не можете начинать темы
Вы не можете отвечать на сообщения
Вы не можете редактировать свои сообщения
Вы не можете удалять свои сообщения
Вы не можете голосовать в опросах
Вы не можете прикреплять файлы к сообщениям
Вы можете скачивать файлы