Поселенцы / Серии: 1-6 из 16 (Артём Мазунов) [2019, Детектив, драма, SATRip]

Ответить на тему
Статистика раздачи
Размер:  3,52 GB   |    Зарегистрирован:  4 месяца 13 дней   |    Скачан:  0 раз

Полного источника не было: Никогда

   
 
Автор Сообщение

sss777sss ®

Пол: Не указан

Стаж: 5 месяцев 12 дней

Сообщений: 410

Создавать темы 10-Апр-2019 16:11

[Цитировать]

Поселенцы- Год выпуска: 2019
Производство: OOO «Студия РоЕл» по заказу телеканала НТВ
Жанр: Детектив, драма
Продолжительность: 00:48:00
Субтитры: нет-Режиссёр: Артём Мазунов-В ролях: Алексей Морозов, Сергей Комаров (II), Лукерья Ильяшенко, Владимир Юматов, Александр Тютин, Екатерина Соломатина, Никита Абдулов, Александр Хованский (II), Александра Прокофьева, Константин Балакирев-Описание: Иван Корнилов – бывший спецназовец, руководитель силового подразделения службы исполнения наказаний. После конфликта с руководством и болезненного разрыва отношений с любимой женщиной, принимает решение изменить свою жизнь и уехать из Москвы. В этот момент Корнилов узнаёт, что в колонии-поселении есть вакантное место, и устраивается туда оперативником.
Начальник колонии Григорьев Василий Иванович (Александр Тютин) искренне рад появлению талантливого, энергичного оперативника. Здесь, в колонии отбывают срок наказания лица из совершенно разных социальных слоёв, уровня и уклада жизни, а так же среди осужденных есть те, кого незаконно обвинили. За любовь и внимание красавца опера начинается борьба одиноких женщин – сотрудниц колонии-поселения, но Корнилова не отпускают воспоминания о Елене, которая ушла от него. Сердце Ивана глухо к чувствам до тех пор, пока при расследовании одного из преступлений, он неожиданно не сближается с заключенной Любовью (Лукерья Ильяшенко). Бывшая актриса по роковой случайности стала свидетельницей, произошедшего на территории колонии.-Сэмпл: http://multi-up.com/1228892-Качество: SATRip
Формат: AVI
Видео кодек: XviD
Аудио кодек: MP3
Видео: 704x272, 25.000 fps, XviD build 73, 1561 Kbps
Аудио: 48 kHz, MP3, 2 ch, 192 Kbps
Реклама: Нет

Релиз

Автор рипа: 25Kuzmich

Без Рекламы

MI

General
Complete name : Downloads\Poselency.2019.XviD.SATRip.25Kuzmich\Poselency.e01.XviD.SATRip.25Kuzmich.avi
Format : AVI
Format/Info : Audio Video Interleave
File size : 600 MiB
Duration : 47mn 35s
Overall bit rate : 1 763 Kbps
Writing application : VirtualDubMod 1.5.10.3 | www.virtualdub-fr.org || (build 2550/release)
Writing library : VirtualDubMod build 2550/release
Video #0
ID : 0
Format : MPEG-4 Visual
Format profile : Advanced Simple@L5
Format settings, BVOP : 1
Format settings, QPel : No
Format settings, GMC : No warppoints
Format settings, Matrix : Default (MPEG)
Codec ID : XVID
Codec ID/Hint : XviD
Duration : 47mn 35s
Bit rate : 1 561 Kbps
Width : 704 pixels
Height : 272 pixels
Display aspect ratio : 2.588
Frame rate : 25.000 fps
Color space : YUV
Chroma subsampling : 4:2:0
Bit depth : 8 bits
Scan type : Progressive
Compression mode : Lossy
Bits/(Pixel*Frame) : 0.326
Stream size : 531 MiB (89%)
Writing library : XviD 73
Audio #1
ID : 1
Format : MPEG Audio
Format version : Version 1
Format profile : Layer 3
Mode : Joint stereo
Codec ID : 55
Codec ID/Hint : MP3
Duration : 47mn 35s
Bit rate mode : Constant
Bit rate : 192 Kbps
Channel(s) : 2 channels
Sampling rate : 48.0 KHz
Compression mode : Lossy
Stream size : 65.4 MiB (11%)
Alignment : Aligned on interleaves
Interleave, duration : 40 ms (1.00 video frame)
Interleave, preload duration : 504 ms
Writing library : LAME3.99r
Encoding settings : -m j -V 4 -q 2 -lowpass 18.6 -b 192

Скриншоты

Внимание! Раздача ведётся путём добавления новых серий:

(1) остановить скачивание,
(2) удалить старый торрент у себя из клиента (старые серии удалять не надо),
(3) скачать новый торрент и запустить его у себя в клиенте вместо старого, при этом указать клиенту путь в старую папку куда и должно происходить скачивание новых серий.
Ваш клиент при этом должен произвести хеширование (проверку) старой папки (если не производит сам - помогите ему сделать это), и будет докачивать только те серии которых у вас ещё нет. Старые серии при этом не удаляются, а продолжают раздаваться!
Eсли вы уже удалили старые серии, то предотвратить повторную закачку старых серий можно, отжав галочку в соответсвующих местах при запуске нового торрента. По возможности, желательно не удалять старые серии как можно дольше чтобы релизёр не столько продолжал раздавать старые серии, а смог сконцентрироваться на новых
.
Предыдущие и альтернативные раздачи

Если ваш рейтинг упадет ниже 0,3, вы не сможете скачивать торренты! Подробнее о рейтинге.

[cybertorrent.ru].t1888.torrent 
Торрент: Зарегистрирован [ 2019-04-10 16:11 ] · E0721DEF2277459BBD537A0E62ECFA25156291C1

Скачать .torrent

Скачать

18 KB

Статус: проверено
Скачан: 0 раз
Размер: 3,52 GB
terms.php
[Профиль] [ЛС]
Показать сообщения:    
Ответить на тему

Текущее время: 24-Авг 15:25

Часовой пояс: UTC ± 0



Вы не можете начинать темы
Вы не можете отвечать на сообщения
Вы не можете редактировать свои сообщения
Вы не можете удалять свои сообщения
Вы не можете голосовать в опросах
Вы не можете прикреплять файлы к сообщениям
Вы можете скачивать файлы