Счастливый Дракон / The Lucky Dragon / An Unusually Lucky Person (Мейшенг / Meisheng) [2009, Китай, Анимация, HDRip] MVO

Ответить на тему
Статистика раздачи
Размер:  1,39 GB   |    Зарегистрирован:  5 месяцев 7 дней   |    Скачан:  0 раз

Полного источника не было: Никогда

   
 
Автор Сообщение

karlll ®

Пол: Не указан

Стаж: 6 месяцев 5 дней

Сообщений: 171

Создавать темы 10-Апр-2019 16:11

[Цитировать]

Счастливый Дракон / The Lucky Dragon / An Unusually Lucky Person
Страна: Китай
Жанр: Анимация
Продолжительность: 01:29:48
Год выпуска: 2009
Перевод: Профессиональный (многоголосый закадровый)
Русские субтитры: нет
Режиссёр: Мейшенг / Meisheng
Роли озвучивали: Салли Энн Фрэнсис ... Grizzly / Blondie (voice)
Описание: Молодой дракон наказан богами и сослан на землю, став обычным смертным. А на земле его ждут множество приключений и опасностей, а также встреча с настоящими друзьями.
Доп. информация: Дорожка с MVO синхронизирована и наложена ale_x2008 при помощи Sony Vegas и VirtualDubMod.
Релиз
Семпл: https://yadi.sk/i/OxYMxLkdxlI4qw
Качество: HDRip
Формат: AVI
Видео: XviD build 73, 704x400 (1.76:1), 23.976 fps, 1823 kbps avg, 0.27 bit/pixel
Аудио: AC3 Dolby Digital, 48000Hz 2/0 (L,R) ch (mono), 192 kbps avg
Аудио 2: AC3 Dolby Digital, 48000Hz 2/0 (L,R) ch, 192 kbps avg
Субтитры:
отсутствуют

Подробные технические данные

Счастливый Дракон - The Lucky Dragon [by ale_x2008].avi
Format : AVI
Format/Info : Audio Video Interleave
File size : 1.39 GiB
Duration : 1 h 29 min
Overall bit rate : 2 222 kb/s
Movie name : Счастливый Дракон - The Lucky Dragon [by ale_x2008]
Director : by ale_x2008
Writing application : VirtualDubMod 1.5.10.2 (build 2540/release)
Copyright : Edich2
Comment : RuTracker.org
Video
ID : 0
Format : MPEG-4 Visual
Format profile : Advanced Simple@L5
Format settings : BVOP1 / Custom Matrix
Format settings, BVOP : 1
Format settings, QPel : No
Format settings, GMC : No warppoints
Format settings, Matrix : Custom
Codec ID : XVID
Codec ID/Hint : XviD
Duration : 1 h 29 min
Bit rate : 1 824 kb/s
Width : 704 pixels
Height : 400 pixels
Display aspect ratio : 16:9
Frame rate : 23.976 (24000/1001) FPS
Color space : YUV
Chroma subsampling : 4:2:0
Bit depth : 8 bits
Scan type : Progressive
Compression mode : Lossy
Bits/(Pixel*Frame) : 0.270
Stream size : 1.14 GiB (82%)
Writing library : XviD 73
Audio #1
ID : 1
Format : AC-3
Format/Info : Audio Coding 3
Codec ID : 2000
Duration : 1 h 29 min
Bit rate mode : Constant
Bit rate : 192 kb/s
Channel(s) : 2 channels
Channel positions : Front: L R
Sampling rate : 48.0 kHz
Frame rate : 31.250 FPS (1536 SPF)
Bit depth : 16 bits
Compression mode : Lossy
Stream size : 123 MiB (9%)
Alignment : Split accross interleaves
Interleave, duration : 42 ms (1.00 video frame)
Interleave, preload duratio : 500 ms
Service kind : Complete Main
Audio #2
ID : 2
Format : AC-3
Format/Info : Audio Coding 3
Codec ID : 2000
Duration : 1 h 29 min
Bit rate mode : Constant
Bit rate : 192 kb/s
Channel(s) : 2 channels
Channel positions : Front: L R
Sampling rate : 48.0 kHz
Frame rate : 31.250 FPS (1536 SPF)
Bit depth : 16 bits
Compression mode : Lossy
Stream size : 123 MiB (9%)
Alignment : Split accross interleaves
Interleave, duration : 42 ms (1.00 video frame)
Interleave, preload duratio : 500 ms
Service kind : Complete Main

Скриншоты


[cybertorrent.ru].t1889.torrent 
Торрент: Зарегистрирован [ 2019-04-10 16:11 ] · 077C59DF3CF4595220C87D11241C21C411923B03

Скачать .torrent

Скачать

14 KB

Статус: проверено
Скачан: 0 раз
Размер: 1,39 GB
terms.php
[Профиль] [ЛС]
Показать сообщения:    
Ответить на тему

Текущее время: 18-Сен 09:48

Часовой пояс: UTC ± 0



Вы не можете начинать темы
Вы не можете отвечать на сообщения
Вы не можете редактировать свои сообщения
Вы не можете удалять свои сообщения
Вы не можете голосовать в опросах
Вы не можете прикреплять файлы к сообщениям
Вы можете скачивать файлы

Партнеры

Выражаем благодарность всем людям, внесшим вклад в наш сайт в далёком прошлом. Мы помним Вас, гордимся Вами и ждём Вас обратно!

Интересное в сети