Место встречи / The place (Паоло Дженовезе / Paolo Genovese) [2017, Италия, Драма, HDRip] Dub (iTunes)

Ответить на тему
Статистика раздачи
Размер:  1,45 GB   |    Зарегистрирован:  5 месяцев 7 дней   |    Скачан:  0 раз

Полного источника не было: Никогда

   
 
Автор Сообщение

солнышко ®

Пол: Не указан

Стаж: 6 месяцев 5 дней

Сообщений: 565

Создавать темы 10-Апр-2019 16:11

[Цитировать]

Место встречи / The place
Страна: Италия
Жанр: Драма
Год выпуска: 2017
Продолжительность: 01:41:12
Перевод: Профессиональный (дублированный) iTunes
Субтитры: нет
Оригинальная аудиодорожка: нет
Режиссер: Паоло Дженовезе / Paolo Genovese
В ролях: Валерио Мастандреа, Марко Джаллини, Алессандро Борги, Сильвио Муччино, Альба Рорвахер, Виттория Пуччини, Сабрина Ферилли, Сильвия д’Амико, Рокко Папалео, Джулия Лаццарини
Описание: Ничем не примечательное кафе «Место». Малозаметный столик в углу, где сидит мужчина средних лет с уставшим лицом. На нем измятый костюм, а перед ним черный блокнот. К загадочному незнакомцу по очереди подсаживаются разные люди и просят исполнить их сокровенные желания. Безымянный человек внимательно слушает их просьбы и делает какие-то пометки.
Он может претворить в жизнь все, о чем мечтают эти люди. Но все имеет свою цену. Чтобы получить желаемое, каждый из гостей обязан выполнить необычное поручение. Грубо говоря, услуга за услугу. Чем сложнее осуществление мечты, тем изощреннее задание. Каждый должен самостоятельно решить: как далеко он готов пойти ради исполнения желания. Герои сомневаются, обдумывают и почти всегда соглашаются. Но правильный ли это выбор?
Доп. информация: от режиссера "Идеальные незнакомцы".-Сэмпл
Качество видео: HDRip
Формат видео: AVI
Видео: 720x304 (2.37:1), 25.000 fps, XviD ~1 652 kb/s, 0.302 bit/pixel
Аудио: AC-3, 6 ch, 48 kHz, 384 kbps, 16 bits

MediaInfo

General
Complete name : C:\Users\Home\Downloads\The.Place.2017_HDRip__[scarabey.org].avi
Format : AVI
Format/Info : Audio Video Interleave
File size : 1.45 GiB
Duration : 1 h 41 min
Overall bit rate : 2 046 kb/s
Writing application : VirtualDubMod 1.5.10.3 | www.virtualdub-fr.org || (build 2550/release)
Writing library : VirtualDubMod build 2550/release
Video
ID : 0
Format : MPEG-4 Visual
Format profile : Advanced Simple@L5
Format settings : BVOP1 / Custom Matrix
Format settings, BVOP : 1
Format settings, QPel : No
Format settings, GMC : No warppoints
Format settings, Matrix : Custom
Codec ID : XVID
Codec ID/Hint : XviD
Duration : 1 h 41 min
Bit rate : 1 652 kb/s
Width : 720 pixels
Height : 304 pixels
Display aspect ratio : 2.35:1
Frame rate : 25.000 FPS
Color space : YUV
Chroma subsampling : 4:2:0
Bit depth : 8 bits
Scan type : Progressive
Compression mode : Lossy
Bits/(Pixel*Frame) : 0.302
Stream size : 1.17 GiB (81%)
Writing library : XviD 73
Audio
ID : 1
Format : AC-3
Format/Info : Audio Coding 3
Commercial name : Dolby Digital
Codec ID : 2000
Duration : 1 h 41 min
Bit rate mode : Constant
Bit rate : 384 kb/s
Channel(s) : 6 channels
Channel layout : L R C LFE Ls Rs
Sampling rate : 48.0 kHz
Frame rate : 31.250 FPS (1536 SPF)
Bit depth : 16 bits
Compression mode : Lossy
Stream size : 278 MiB (19%)
Alignment : Split accross interleaves
Interleave, duration : 40 ms (1.00 video frame)
Interleave, preload duratio : 500 ms
Service kind : Complete Main

Скриншот c названием фильма

Скриншоты

[cybertorrent.ru].t1896.torrent 
Торрент: Зарегистрирован [ 2019-04-10 16:11 ] · 41F820C09B16A5A5DC4057D7676F5F1153C6A5A4

Скачать .torrent

Скачать

15 KB

Статус: проверено
Скачан: 0 раз
Размер: 1,45 GB
terms.php
[Профиль] [ЛС]
Показать сообщения:    
Ответить на тему

Текущее время: 17-Сен 19:15

Часовой пояс: UTC ± 0



Вы не можете начинать темы
Вы не можете отвечать на сообщения
Вы не можете редактировать свои сообщения
Вы не можете удалять свои сообщения
Вы не можете голосовать в опросах
Вы не можете прикреплять файлы к сообщениям
Вы можете скачивать файлы

Партнеры

Выражаем благодарность всем людям, внесшим вклад в наш сайт в далёком прошлом. Мы помним Вас, гордимся Вами и ждём Вас обратно!

Интересное в сети