Преступная зона / Криминальная зона / Crime Zone (Луис Льоса / Luis Llosa) [1989, США, Перу, фантастика, боевик, постапокалипсис, DVDRip-AVC] MVO + Original Eng

Ответить на тему
Статистика раздачи
Размер:  2,09 GB   |    Зарегистрирован:  5 месяцев 8 дней   |    Скачан:  0 раз

Полного источника не было: Никогда

   
 
Автор Сообщение

serzh ®

Пол: Не указан

Стаж: 6 месяцев 6 дней

Сообщений: 383

Создавать темы 10-Апр-2019 16:11

[Цитировать]

Преступная зона / Криминальная зона / Crime Zone
Страна: США, Перу
Студия: New Concorde / MGM/UA
Жанр: фантастика, боевик, постапокалипсис
Год выпуска: 1989
Продолжительность: 01:32:27
Перевод: Профессиональный (многоголосый закадровый)
Субтитры: нет
Оригинальная аудиодорожка: английский
Режиссер: Луис Льоса / Luis Llosa
В ролях: Дэвид Кэррадайн (David Carradine), Питер Нельсон (Peter Nelson), Шерилин Фенн (Sherilyn Fenn), Майкл Шейнер (Michael Shaner), Орландо Саша (Orlando Sacha), Дон Мэнор (Don Manor), Хорхе Бустаманте (Jorge Bustamante), Альфредо Алварез Кальдерон (Alfredo Álvarez Calderón), Франциско Джиральдо (Francisco Giraldo), Клер Бересфорд (Clare Beresford)
Описание: Будущее после глобальной ядерной катастрофы при фашистском режиме. Правительственный агент предлагает молодой супружеской паре шанс выбраться из мрачной пустынной зоны, если они совершат для него ограбление.
Фильм напоминает историю Бонни и Клайд, только с постапокалиптической постановкой в стиле 80их. Шерилин Фенн играет роль блонд подруги главного героя.
Доп. информация: x264 DVDRip на базе DVD релиза от dvdbox (спасибо!).
За русскую аудио дорожку спасибо - AlexNT.

Сэмпл: http://multi-up.com/1228994
Качество видео: DVDRip-AVC
Формат видео: MKV
Видео: 720x548 (4:3), 25.0 fps, x264 core 157, ~2,782 kbps, 8 bit, 0.282 bit/pixel
Аудио: AC3 2.0 русский (224 kbps)
Аудио 2: AC3 2.0 английские (224 kbps)

MediaInfo

General
Unique ID : 55910425848653800821295907731116174077 (0x2A0FF4D25716154929DD86C7742CAAFD)
Complete name :Crime.Zone.1989.DVDRip.x264-TMNEMONIC-RT.mkv
Format : Matroska
Format version : Version 4
File size : 2.09 GiB
Duration : 1 h 32 min
Overall bit rate : 3 232 kb/s
Movie name : Crime Zone (1989)
Encoded date : UTC 2019-04-09 23:25:20
Writing application : mkvmerge v32.0.0 ('Astral Progressions') 64-bit
Writing library : libebml v1.3.7 + libmatroska v1.5.0
Video
ID : 1
Format : AVC
Format/Info : Advanced Video Codec
Format profile : High@L4.1
Format settings : CABAC / 16 Ref Frames
Format settings, CABAC : Yes
Format settings, RefFrames : 16 frames
Codec ID : V_MPEG4/ISO/AVC
Duration : 1 h 32 min
Bit rate : 2 782 kb/s
Width : 720 pixels
Height : 548 pixels
Display aspect ratio : 4:3
Frame rate mode : Constant
Frame rate : 25.000 FPS
Color space : YUV
Chroma subsampling : 4:2:0
Bit depth : 8 bits
Scan type : Progressive
Bits/(Pixel*Frame) : 0.282
Stream size : 1.80 GiB (86%)
Title : [x264][TMNEMONIC]
Writing library : x264 core 157 r2935 545de2f
Encoding settings : cabac=1 / ref=16 / deblock=1:-1:-1 / analyse=0x3:0x133 / me=umh / subme=10 / psy=1 / psy_rd=1.00:0.15 / mixed_ref=1 / me_range=24 / chroma_me=1 / trellis=2 / 8x8dct=1 / cqm=0 / deadzone=21,11 / fast_pskip=1 / chroma_qp_offset=-3 / threads=17 / lookahead_threads=2 / sliced_threads=0 / nr=0 / decimate=1 / interlaced=0 / bluray_compat=0 / constrained_intra=0 / bframes=8 / b_pyramid=2 / b_adapt=2 / b_bias=0 / direct=3 / weightb=1 / open_gop=0 / weightp=2 / keyint=250 / keyint_min=25 / scenecut=40 / intra_refresh=0 / rc_lookahead=60 / rc=crf / mbtree=1 / crf=15.5 / qcomp=0.60 / qpmin=0 / qpmax=69 / qpstep=4 / vbv_maxrate=62500 / vbv_bufsize=78125 / crf_max=0.0 / nal_hrd=none / filler=0 / ip_ratio=1.40 / aq=1:1.00
Default : Yes
Forced : No
Color range : Limited
Color primaries : BT.601 PAL
Transfer characteristics : BT.709
Matrix coefficients : BT.601
Audio #1
ID : 2
Format : AC-3
Format/Info : Audio Coding 3
Commercial name : Dolby Digital
Codec ID : A_AC3
Duration : 1 h 32 min
Bit rate mode : Constant
Bit rate : 224 kb/s
Channel(s) : 2 channels
Channel layout : L R
Sampling rate : 48.0 kHz
Frame rate : 31.250 FPS (1536 SPF)
Bit depth : 16 bits
Compression mode : Lossy
Stream size : 148 MiB (7%)
Title : [2.0]
Language : Russian
Service kind : Complete Main
Default : Yes
Forced : No
Audio #2
ID : 3
Format : AC-3
Format/Info : Audio Coding 3
Commercial name : Dolby Digital
Codec ID : A_AC3
Duration : 1 h 32 min
Bit rate mode : Constant
Bit rate : 224 kb/s
Channel(s) : 2 channels
Channel layout : L R
Sampling rate : 48.0 kHz
Frame rate : 31.250 FPS (1536 SPF)
Bit depth : 16 bits
Compression mode : Lossy
Stream size : 148 MiB (7%)
Title : [2.0]
Language : English
Service kind : Complete Main
Default : No
Forced : No
Menu
00:00:00.000 : :Chapter 1
00:06:48.840 : :Chapter 2
00:15:55.920 : :Chapter 3
00:22:35.640 : :Chapter 4
00:30:30.360 : :Chapter 5
00:38:24.360 : :Chapter 6
00:45:10.200 : :Chapter 7
00:53:26.040 : :Chapter 8
01:00:53.280 : :Chapter 9
01:08:52.560 : :Chapter 10
01:17:25.200 : :Chapter 11
01:24:08.160 : :Chapter 12

Скриншот c названием фильма

[cybertorrent.ru].t1902.torrent 
Торрент: Зарегистрирован [ 2019-04-10 16:11 ] · 35495E0E9BE7CAE08DFFBAB4E6221B4E180F9919

Скачать .torrent

Скачать

84 KB

Статус: проверено
Скачан: 0 раз
Размер: 2,09 GB
terms.php
[Профиль] [ЛС]
Показать сообщения:    
Ответить на тему

Текущее время: 19-Сен 04:14

Часовой пояс: UTC ± 0



Вы не можете начинать темы
Вы не можете отвечать на сообщения
Вы не можете редактировать свои сообщения
Вы не можете удалять свои сообщения
Вы не можете голосовать в опросах
Вы не можете прикреплять файлы к сообщениям
Вы можете скачивать файлы

Партнеры

Выражаем благодарность всем людям, внесшим вклад в наш сайт в далёком прошлом. Мы помним Вас, гордимся Вами и ждём Вас обратно!

Интересное в сети