Розалина и львы / Розалина и ее львы / Roselyne et les lions / Roselyne and the Lions (Жан-Жак Бенекс / Jean-Jacques Beineix) [1986, Франция, комедия, мелодрама, DVDRip] MVO (студия "Омикрон")

Ответить на тему
Статистика раздачи
Размер:  2,17 GB   |    Зарегистрирован:  4 месяца 8 дней   |    Скачан:  0 раз

Полного источника не было: Никогда

   
 
Автор Сообщение

serzh ®

Пол: Не указан

Стаж: 5 месяцев 6 дней

Сообщений: 348

Создавать темы 10-Апр-2019 16:11

[Цитировать]

Розалина и львы / Розалина и ее львы / Roselyne et les lions / Roselyne and the Lions
Страна: Франция
Жанр: комедия, мелодрама
Год выпуска: 1986
Продолжительность: 02:48:23
Перевод: Профессиональный (многоголосый закадровый) студия "Омикрон"
Субтитры: нет
Режиссер: Жан-Жак Бенекс / Jean-Jacques Beineix
В ролях: Изабель Паско, Жерар Сандос, Гэбриел Моне, Филипп Клевено, Гюнтер Майснер, Вольф Харниш, Жак Карпентье, Карлос Павлидис, Жак Мату
Описание: Тьерри и Розалина оставляют семьи и учёбу, чтобы посвятить себя своей страсти : они дрессируют диких животных в марсельском зоопарке, а затем ищут работу в цирке. Начало было трудным , но скоро им представляется случай, чтобы выступить со своим показательным номером, вызывающим восхищение и зависть. Выступление перед Кёнигом, директором немецкого цирка с мировой славой, в конце концов решает их судьбу: их принимают на работу в цирк. Испытанию подвергаются и чувства Розалины и Тьерри, когда популярность Розалины растёт, а Тьерри получает серьёзную травму во время репетиции...
Сэмпл: http://multi-up.com/1229008
Качество видео: DVDRip (Исходник - DVD9)
Формат видео: AVI
Видео: XviD 73, 688x384, (16:9), 25,000 fps, 1639 Кбит/с, 8 бит, 0.25 bit/pixel
Аудио: Русский (АС3, 2 ch (Front: L R), 48,0 KHz, 192 Kbps)

MediaInfo

Общее
Полное имя : D:\Фильмы на трекер\Розалина и львы (триллер, мелодрама 1986 год).avi
Формат : AVI
Формат/Информация : Audio Video Interleave
Профиль формата : OpenDML
Размер файла : 2,17 Гбайт
Продолжительность : 2 ч. 48 м.
Общий поток : 1844 Кбит/сек
Программа кодирования : VirtualDubMod 1.5.10.2 (build 2540/release)
Библиотека кодирования : VirtualDubMod build 2540/release
Видео
Идентификатор : 0
Формат : MPEG-4 Visual
Профиль формата : Advanced Simple@L5
Параметр BVOP формата : 2
Параметр QPel формата : Нет
Параметр GMC формата : Без точки перехода
Параметр матрицы формата : Выборочная
Идентификатор кодека : XVID
Идентификатор кодека/Подсказка : XviD
Продолжительность : 2 ч. 48 м.
Битрейт : 1639 Кбит/сек
Ширина : 688 пикселей
Высота : 384 пикселя
Соотношение сторон : 16:9
Частота кадров : 25,000 кадров/сек
Цветовое пространство : YUV
Субдискретизация насыщенности : 4:2:0
Битовая глубина : 8 бит
Тип развёртки : Прогрессивная
Метод сжатия : С потерями
Бит/(Пиксели*Кадры) : 0.248
Размер потока : 1,93 Гбайт (89%)
Библиотека кодирования : XviD 73
Аудио
Идентификатор : 1
Формат : AC-3
Формат/Информация : Audio Coding 3
Расширение режима : CM (complete main)
Параметр Endianness формата : Big
Идентификатор кодека : 2000
Продолжительность : 2 ч. 48 м.
Вид битрейта : Постоянный
Битрейт : 192 Кбит/сек
Каналы : 2 канала
Расположение каналов : Front: L R
Частота : 48,0 КГц
Частота кадров : 31,250 кадров/сек (1536 spf)
Метод сжатия : С потерями
Размер потока : 231 Мбайт (10%)
Выравнивание : Разделение по промежуткам
Продолжительность промежутка : 40 мс. (1,00 видеокадр)
Время предзагрузки промежутка : 500 мс.

Скриншот c названием фильма

Скриншоты

[cybertorrent.ru].t1909.torrent 
Торрент: Зарегистрирован [ 2019-04-10 16:11 ] · F854A43A520F92FE94B4AAC9E88A210DD516F5D8

Скачать .torrent

Скачать

11 KB

Статус: проверено
Скачан: 0 раз
Размер: 2,17 GB
terms.php
[Профиль] [ЛС]
Показать сообщения:    
Ответить на тему

Текущее время: 19-Авг 06:16

Часовой пояс: UTC ± 0



Вы не можете начинать темы
Вы не можете отвечать на сообщения
Вы не можете редактировать свои сообщения
Вы не можете удалять свои сообщения
Вы не можете голосовать в опросах
Вы не можете прикреплять файлы к сообщениям
Вы можете скачивать файлы