Молчание / The Silence (Джон Р. Леонетти / John R. Leonetti) [2019, Германия, ужасы, WEB-DLRip] Dub (SDI Media)

Ответить на тему
Статистика раздачи
Размер:  1,46 GB   |    Зарегистрирован:  4 месяца 7 дней   |    Скачан:  0 раз
Сидов:  572  [  0 KB/s  ]   Личеров:  11  [  0 KB/s  ]  
   
 
Автор Сообщение

Lew ®

Пол: Не указан

Стаж: 5 месяцев 6 дней

Сообщений: 378

Создавать темы 10-Апр-2019 16:11

[Цитировать]

Молчание / The Silence- Год выхода: 2019
Страна: Германия
Жанр: ужасы
Продолжительность: 01:30:53
Перевод: Профессиональный (полное дублирование) SDI Media
Субтитры: Русские (форсированные) (внешние *.srt)-Режиссер:
Джон Р. Леонетти / John R. Leonetti-В ролях:
Кирнан Шипка, Стэнли Туччи, Миранда Отто, Джон Корбетт, Сара Эбботт, Кейт Корбетт, Кайл Харрисон Брейткопф, Демпси Брайк, Билли Маклеллан, Ханна Гордон-О фильме:
Спелеологи вскрыли древнюю пещеру в Молдавии, тем самым выпустив на свободу странных существ, больше всего похожих на летучих мышей. Твари слепы и ориентируются только на звуки, быстро перемещаются на кожистых крыльях и довольно шустро размножаются, поэтому вскоре распространяются по всей планете. И, конечно, они весьма кровожадны.-Релиз групп | | IMDB | КиноПоиск | Сэмпл |-Качество: WEB-DLRip
Формат: AVI
Видео: 720x304 (2.37:1), 23.976 fps, XviD build 67 ~1900 kbps avg, 0.36 bit/pixel
Аудио: 48 kHz, AC3 Dolby Digital, 3/2 (L,C,R,l,r) + LFE ch, ~384 kbps avg-[box]* Релиз создан при финансовой поддержке EniaHD[/box]-

Скриншоты

-

MediaInfo

Код:Полное имя : D:\Mol4anie_2019_WEB-DLRip_by_Dalemake.avi
Формат : AVI
Формат/Информация : Audio Video Interleave
Размер файла : 1,46 Гбайт
Продолжительность : 1 ч. 30 м.
Общий поток : 2293 Кбит/сек
Программа кодирования : VirtualDubMod 1.5.10.3 | www.virtualdub-fr.org || (build 2550/release)
Библиотека кодирования : VirtualDubMod build 2550/release
Видео
Идентификатор : 0
Формат : MPEG-4 Visual
Профиль формата : Advanced Simple@L5
Параметр BVOP формата : 1
Параметр QPel формата : Нет
Параметр GMC формата : Без точки перехода
Параметр матрицы формата : Выборочная
Идентификатор кодека : XVID
Идентификатор кодека/Подсказка : XviD
Продолжительность : 1 ч. 30 м.
Битрейт : 1899 Кбит/сек
Ширина : 720 пикселей
Высота : 304 пикселя
Соотношение сторон : 2,35:1
Частота кадров : 23,976 кадра/сек
Цветовое пространство : YUV
Субдискретизация насыщенности : 4:2:0
Битовая глубина : 8 бит
Тип развёртки : Прогрессивная
Метод сжатия : С потерями
Бит/(Пиксели*Кадры) : 0.362
Размер потока : 1,21 Гбайт (83%)
Библиотека кодирования : XviD 67
Аудио
Идентификатор : 1
Формат : AC-3
Формат/Информация : Audio Coding 3
Расширение режима : CM (complete main)
Параметр Endianness формата : Big
Идентификатор кодека : 2000
Продолжительность : 1 ч. 30 м.
Вид битрейта : Постоянный
Битрейт : 384 Кбит/сек
Каналы : 6 каналов
Расположение каналов : Front: L C R, Side: L R, LFE
Частота : 48,0 КГц
Метод сжатия : С потерями
Размер потока : 250 Мбайт (17%)
Выравнивание : Разделение по промежуткам
Продолжительность промежутка : 42 мс. (1,00 видеокадр)
Время предзагрузки промежутка : 500 мс.
-
[cybertorrent.ru].t1910.torrent 
Торрент: Зарегистрирован [ 2019-04-10 16:11 ] · 66FEB6967855B8CCEB358BC144BC3AB6F20699FF

Скачать .torrent

Скачать

15 KB

Статус: проверено
Скачан: 0 раз
Размер: 1,46 GB
terms.php
[Профиль] [ЛС]
Показать сообщения:    
Ответить на тему

Текущее время: 18-Авг 15:53

Часовой пояс: UTC ± 0



Вы не можете начинать темы
Вы не можете отвечать на сообщения
Вы не можете редактировать свои сообщения
Вы не можете удалять свои сообщения
Вы не можете голосовать в опросах
Вы не можете прикреплять файлы к сообщениям
Вы можете скачивать файлы