Гоморра / Gomorra: La serie / Сезон: 4 / Серии 1-2 из 12 (Клаудио Капеллини, Стефано Соллима, Франческа Коменчини) [2019, Италия, Германия, Драма, криминал, HDTVRip] DVO (Gears Media) + Original

Ответить на тему
Статистика раздачи
Размер:  1,2 GB   |    Зарегистрирован:  4 месяца 6 дней   |    Скачан:  0 раз

Полного источника не было: Никогда

   
 
Автор Сообщение

Рамфоринх ®

Пол: Не указан

Стаж: 5 месяцев 6 дней

Сообщений: 347

Создавать темы 11-Апр-2019 16:30

[Цитировать]

Гоморра / Gomorra: La serie
Год выпуска: 2019
Страна: Италия, Германия
Жанр: Драма, криминал
Продолжительность: ~00:50:00
Перевод: Профессиональный (двухголосый закадровый) Gears Media
Режиссёр: Клаудио Капеллини, Стефано Соллима, Франческа Коменчини
В ролях: Марко Д’Амор, Сальваторе Эспозито, Фортунато Серлино, Фабио Де Каро, Christian Giroso, Giovanni Buselli, Кармине Монако, Лино Муселла, Кристина Донадио, Marco Palvetti и другие
Описание:История о людях и судьбах, связанных с жестокой и могущественной неаполитанской преступной организацией. Рассказ о жизни мафиозного клана изнутри, увиденной глазами 30-летнего Чиро, верного помощника крестного отца Пьетро Савастано.
Ссылка на предыдущие и альтернативные раздачи: http://cybertorrent.ru/forum/tracker.php?nm=Gomorra
Сэмпл: http://multi-up.com/1229057
Качество: HDTVRip
Формат: AVI
Видео: XviD, 720x400 at 23.976 fps, ~1500 kbps avg
Аудио1: Russian, MP3, 48 kHz, 2 ch, 128 kbps
Аудио2: Italian, MP3, 48 kHz, 2 ch, 128 kbps
Субтитры: нет
Реклама: аудио (два раза, в начале и конце, по 12 сек.)

MediaInfo

Format : AVI
Format/Info : Audio Video Interleave
File size : 663 MiB
Duration : 52 min 23 s
Overall bit rate : 1 770 kb/s
Movie name : Release by Prometheus
Writing application : Lavf58.20.100
Video
ID : 0
Format : MPEG-4 Visual
Format profile : Advanced Simple@L5
Format settings : BVOP1
Format settings, BVOP : 1
Format settings, QPel : No
Format settings, GMC : No warppoints
Format settings, Matrix : Default (H.263)
Codec ID : XVID
Codec ID/Hint : XviD
Duration : 52 min 23 s
Bit rate : 1 493 kb/s
Width : 720 pixels
Height : 400 pixels
Display aspect ratio : 16:9
Frame rate : 23.976 (24000/1001) FPS
Color space : YUV
Chroma subsampling : 4:2:0
Bit depth : 8 bits
Scan type : Progressive
Compression mode : Lossy
Bits/(Pixel*Frame) : 0.216
Stream size : 560 MiB (84%)
Writing library : XviD 67
Audio #1
ID : 1
Format : MPEG Audio
Format version : Version 1
Format profile : Layer 3
Format settings : Joint stereo / MS Stereo
Codec ID : 55
Codec ID/Hint : MP3
Duration : 52 min 23 s
Bit rate mode : Constant
Bit rate : 128 kb/s
Channel(s) : 2 channels
Sampling rate : 48.0 kHz
Compression mode : Lossy
Stream size : 48.0 MiB (7%)
Alignment : Aligned on interleaves
Interleave, duration : 24 ms (0.58 video frame)
Title : Gears Media
Audio #2
ID : 2
Format : MPEG Audio
Format version : Version 1
Format profile : Layer 3
Format settings : Joint stereo / MS Stereo
Codec ID : 55
Codec ID/Hint : MP3
Duration : 52 min 23 s
Bit rate mode : Constant
Bit rate : 128 kb/s
Channel(s) : 2 channels
Sampling rate : 48.0 kHz
Compression mode : Lossy
Stream size : 48.0 MiB (7%)
Alignment : Aligned on interleaves
Interleave, duration : 24 ms (0.58 video frame)

Скриншоты

Внимание! Раздача ведётся путём добавления новых серий

Внимание! Раздача ведётся путём добавления новых серий; при каждом добавлении создаётся новый торрент. Чтобы начать докачку новой серии, пользователям необходимо сделать следующее:
(1) остановить скачивание,
(2) удалить старый торрент у себя из клиента (старые серии удалять не надо),
(3) скачать новый торрент и запустить его у себя в клиенте вместо старого, при этом указать клиенту путь в старую папку куда и должно происходить скачивание новых серий.
Ваш клиент при этом должен произвести хеширование (проверку) старой папки (если не производит сам - помогите ему сделать это), и будет докачивать только те серии которых у вас ещё нет. Старые серии при этом не удаляются, а продолжают раздаваться!
Eсли вы уже удалили старые серии, то предотвратить повторную закачку старых серий можно, отжав галочку в соответствующих местах при запуске нового торрента. По возможности, желательно не удалять старые серии как можно дольше чтобы релизёр не столько продолжал раздавать старые серии, а смог сконцентрироваться на новых.
[cybertorrent.ru].t1921.torrent 
Торрент: Зарегистрирован [ 2019-04-11 16:30 ] · 59911627E8E61EEA865B2048456A61CFF4464BA9

Скачать .torrent

Скачать

13 KB

Статус: проверено
Скачан: 0 раз
Размер: 1,2 GB
terms.php
[Профиль] [ЛС]
Показать сообщения:    
Ответить на тему

Текущее время: 18-Авг 15:16

Часовой пояс: UTC ± 0



Вы не можете начинать темы
Вы не можете отвечать на сообщения
Вы не можете редактировать свои сообщения
Вы не можете удалять свои сообщения
Вы не можете голосовать в опросах
Вы не можете прикреплять файлы к сообщениям
Вы можете скачивать файлы