Микко из Тампере просит совета (Юрий Чулюкин, Георгий Кушниренко) [1986, семейный, комедия, музыкальный, SATRip]

Ответить на тему
Статистика раздачи
Размер:  1,46 GB   |    Зарегистрирован:  5 месяцев   |    Скачан:  0 раз

Полного источника не было: Никогда

   
 
Автор Сообщение

Leonard ®

Пол: Не указан

Стаж: 5 месяцев 6 дней

Сообщений: 57

Создавать темы 18-Мар-2019 10:01

[Цитировать]

Микко из Тампере просит совета
Студия: Творческое объединение «Экран», YLE TV2
Жанр: семейный, комедия, музыкальный
Год выпуска: 1986
Продолжительность: 01:35:06
Режиссер: Юрий Чулюкин, Георгий Кушниренко
В ролях: Эско Ройне, Улла-Майя Силкавире, Раймо Грёнберг, Улла Тапанинен, Анне Вески, Амаяк Акопян, Юрий Куклачёв, Рики Сорса, Марти Сурия, Павел Винник
Описание: О дружбе между гастролирующими по Финляндии советскими артистами и финскими детьми, участниками самодеятельного музыкального ансамбля города Тампере. Микко в телевизоре увидел выступление клоуна Куклачёва с его дрессированными кошками. В восторге мальчик написал Куклачёву письмо, где рассказал, что тоже хочет дрессировать своего домашнего кота, но не знает, как это правильно делать с кошками. Когда Куклачёв получил это письмо, он собирался уже ответить, но из-за пропажи конверта он помнил только, что Микко живет в городе Тампере, и больше ничего о его адресе. К счастью, цирк отправился с гастролями в Финляндию. Приехав в Тампере, Куклачёв просит переводчика помочь найти мальчика Микко, который наверняка давно уже ждёт письма.
Дополнительная информация:
Автор релиза -
Источник видео для рипа - DVB 576i TS - моя запись с канала "Россия К"



Сэмпл: http://multi-up.com/1219526
Рекламы нет!
Качество видео: SATRip
Формат видео: AVI
Видео: XviD, 720x528 (4:3), 1999 kbps, 25.000 fps, 0.210 bit/pixel
Аудио: Русский АC3, 48000 Гц, 2ch, 192 kbps

MediaInfo

Общее
Полное имя : D:\Микко.из.Тампере.просит.совета.1986.SATRip-ylnian.avi
Формат : AVI
Формат/Информация : Audio Video Interleave
Размер файла : 1,46 Гбайт
Продолжительность : 1 ч. 35 м.
Общий поток : 2200 Кбит/сек
Программа кодирования : VirtualDubMod 1.5.10.3 | www.virtualdub-fr.org || (build 2550/release)
Библиотека кодирования : VirtualDubMod build 2550/release
Видео
Идентификатор : 0
Формат : MPEG-4 Visual
Профиль формата : Advanced Simple@L5
Настройки формата : BVOP1 / Custom Matrix
Параметр BVOP формата : 1
Параметр QPel формата : Нет
Параметр GMC формата : Без точки перехода
Параметр матрицы формата : Выборочная
Идентификатор кодека : XVID
Идентификатор кодека/Подсказка : XviD
Продолжительность : 1 ч. 35 м.
Битрейт : 1999 Кбит/сек
Ширина : 720 пикселей
Высота : 528 пикселей
Соотношение сторон : 4:3
Частота кадров : 25,000 кадров/сек
Цветовое пространство : YUV
Субдискретизация насыщенности : 4:2:0
Битовая глубина : 8 бит
Тип развёртки : Прогрессивная
Метод сжатия : С потерями
Бит/(Пиксели*Кадры) : 0.210
Размер потока : 1,33 Гбайт (91%)
Библиотека кодирования : XviD 67
Аудио
Идентификатор : 1
Формат : AC-3
Формат/Информация : Audio Coding 3
Коммерческое название : Dolby Digital
Идентификатор кодека : 2000
Продолжительность : 1 ч. 35 м.
Вид битрейта : Постоянный
Битрейт : 192 Кбит/сек
Каналы : 2 канала
Channel layout : L R
Частота : 48,0 КГц
Частота кадров : 31,250 кадров/сек (1536 SPF)
Битовая глубина : 16 бит
Метод сжатия : С потерями
Размер потока : 131 Мбайт (9%)
Выравнивание : Разделение по промежуткам
Продолжительность промежутка : 40 мс. (1,00 видеокадр)
Время предзагрузки промежутка : 500 мс.
ServiceKind/String : Complete Main

Сравнение

Сравнение с TVRip-ом by Xamasas - http://screenshotcomparison.com/comparison/127191 - в моём релизе больше наполнение кадра, лучше детализация
[cybertorrent.ru].t193.torrent 
Торрент: Зарегистрирован [ 2019-03-18 10:04 ] · 6B20B942F4D299FC0BD308FF332663DF5F4C7A97

Скачать .torrent

Скачать

15 KB

Статус: проверено
Скачан: 0 раз
Размер: 1,46 GB
terms.php
[Профиль] [ЛС]
Показать сообщения:    
Ответить на тему

Текущее время: 18-Авг 23:13

Часовой пояс: UTC ± 0



Вы не можете начинать темы
Вы не можете отвечать на сообщения
Вы не можете редактировать свои сообщения
Вы не можете удалять свои сообщения
Вы не можете голосовать в опросах
Вы не можете прикреплять файлы к сообщениям
Вы можете скачивать файлы