Империя / Empire / Сезон: 5 / Серии: 1-11 из 18 (Ли Дэниелс) [2018, США, драма, музыка, WEBRip] DVO (Gears Media) + Original

Ответить на тему
Статистика раздачи
Размер:  5,95 GB   |    Зарегистрирован:  4 месяца 6 дней   |    Скачан:  0 раз

Полного источника не было: Никогда

   
 
Автор Сообщение

Рамфоринх ®

Пол: Не указан

Стаж: 5 месяцев 6 дней

Сообщений: 351

Создавать темы 12-Апр-2019 16:54

[Цитировать]

Империя / Empire
Год выпуска: 2018
Страна: США
Жанр: драма, музыка
Продолжительность: ~ 00:43:00
Перевод: Профессиональный (двухголосый закадровый)[Gears Media]
Режиссёр: Ли Дэниелс
В ролях: Терренс Ховард, Тараджи П. Хенсон, Трэй Байерс, Джусси Смоллетт, Габури Сидибе, Кэйтлин Даблдэй, Мэлик Йоба, Таша Смит, Рафаэль Де Ла Фуэнте, Лиззи Ли
Описание:
История о главе музыкальной империи, который узнает о том, что он неизлечимо болен и что жить ему осталось всего три года. Он желает, чтобы его империя продолжала жить и после него, и потому решает выбрать наследника. Его трое сыновей и бывшая жена начинают борьбу за «трон».
Ссылка на предыдущие и альтернативные раздачи: http://cybertorrent.ru/forum/tracker.php?nm=Empire
Сэмпл: http://multi-up.com/1210728
Качество: WEBRip
Формат: AVI
Видео: XviD, 720x400 at 23.976 fps, ~1400 kbps avg
Аудио1: Russian, MP3, 48 kHz, 2 ch, 128 kbps
Аудио2: English, MP3, 48 kHz, 2 ch, 128 kbps
Субтитры: нет
Реклама: аудио (два раза, в начале и конце, по 12 сек.)

MediaInfo

Format : AVI
Format/Info : Audio Video Interleave
File size : 536 MiB
Duration : 44 min 4 s
Overall bit rate : 1 701 kb/s
Writing application : Lavf57.29.101
Video
ID : 0
Format : xvid
Codec ID : xvid
Duration : 44 min 4 s
Bit rate : 1 424 kb/s
Width : 720 pixels
Height : 400 pixels
Display aspect ratio : 16:9
Frame rate : 23.976 (24000/1001) FPS
Scan type : Progressive
Bits/(Pixel*Frame) : 0.206
Stream size : 449 MiB (84%)
Audio #1
ID : 1
Format : MPEG Audio
Format version : Version 1
Format profile : Layer 3
Format settings : Joint stereo / MS Stereo
Codec ID : 55
Codec ID/Hint : MP3
Duration : 44 min 4 s
Bit rate mode : Constant
Bit rate : 128 kb/s
Channel(s) : 2 channels
Sampling rate : 48.0 kHz
Compression mode : Lossy
Stream size : 40.3 MiB (8%)
Alignment : Aligned on interleaves
Interleave, duration : 24 ms (0.58 video frame)
Interleave, preload duratio : 24 ms
Title : Gears Media
Writing library : LAME3.99.5
Audio #2
ID : 2
Format : MPEG Audio
Format version : Version 1
Format profile : Layer 3
Format settings : Joint stereo / MS Stereo
Codec ID : 55
Codec ID/Hint : MP3
Duration : 44 min 4 s
Bit rate mode : Constant
Bit rate : 128 kb/s
Channel(s) : 2 channels
Sampling rate : 48.0 kHz
Compression mode : Lossy
Stream size : 40.3 MiB (8%)
Alignment : Aligned on interleaves
Interleave, duration : 24 ms (0.58 video frame)
Interleave, preload duratio : 24 ms
Writing library : LAME3.99.

Скриншоты

Внимание! Раздача ведётся путём добавления новых серий

Внимание! Раздача ведётся путём добавления новых серий; при каждом добавлении создаётся новый торрент. Чтобы начать докачку новой серии, пользователям необходимо сделать следующее:
(1) остановить скачивание,
(2) удалить старый торрент у себя из клиента (старые серии удалять не надо),
(3) скачать новый торрент и запустить его у себя в клиенте вместо старого, при этом указать клиенту путь в старую папку куда и должно происходить скачивание новых серий.
Ваш клиент при этом должен произвести хеширование (проверку) старой папки (если не производит сам - помогите ему сделать это), и будет докачивать только те серии которых у вас ещё нет. Старые серии при этом не удаляются, а продолжают раздаваться!
Eсли вы уже удалили старые серии, то предотвратить повторную закачку старых серий можно, отжав галочку в соответствующих местах при запуске нового торрента. По возможности, желательно не удалять старые серии как можно дольше чтобы релизёр не столько продолжал раздавать старые серии, а смог сконцентрироваться на новых.
[cybertorrent.ru].t1940.torrent 
Торрент: Зарегистрирован [ 2019-04-12 16:55 ] · 2AF31C414BD98A62C9CB52CD704BF3AE7745C792

Скачать .torrent

Скачать

31 KB

Статус: проверено
Скачан: 0 раз
Размер: 5,95 GB
terms.php
[Профиль] [ЛС]
Показать сообщения:    
Ответить на тему

Текущее время: 19-Авг 05:50

Часовой пояс: UTC ± 0



Вы не можете начинать темы
Вы не можете отвечать на сообщения
Вы не можете редактировать свои сообщения
Вы не можете удалять свои сообщения
Вы не можете голосовать в опросах
Вы не можете прикреплять файлы к сообщениям
Вы можете скачивать файлы