Легенды завтрашнего дня / DC's Legends of Tomorrow / Сезон: 4 / Серии: 1-10 из 18 (Дермотт Даунс, Грегори Смит, Дэвид Геддес) [2018, США, Фантастика, боевик, драма, приключения, WEB-DLRip] MVO (LostFilm) + Original

Ответить на тему
Статистика раздачи
Размер:  8,22 GB   |    Зарегистрирован:  6 дней   |    Скачан:  0 раз

Полного источника не было: Никогда

   
 
Автор Сообщение

Рамфоринх ®

Пол: Не указан

Стаж: 1 месяц 7 дней

Сообщений: 164

Создавать темы 12-Апр-2019 16:54

[Цитировать]

Легенды завтрашнего дня/ DC's Legends of Tomorrow- Год выпуска: 2018
Страна: США
Жанр: Фантастика, боевик, драма, приключения
Продолжительность: 00:42:28-Перевод: Профессиональный (многоголосый закадровый) - LostFilm-Режиссёр: Дермотт Даунс, Грегори Смит, Дэвид Геддес--В ролях: Артур Дарвилл, Франц Драмех, Виктор Гарбер, Кейти Лотц, Вентворт Миллер, Доминик Пёрселл, Сиара Рене, Брэндон Рут-Описание: Путешественник во времени и пространстве Рип Хантер объединяет в одну команду героев и злодеев, чтобы предотвратить надвигающуюся катастрофу, которая угрожает не только Земле и всем на ней живущим, но и самому времени. Сможет ли эта команда победить бессмертное зло, абсолютно непохожее на то, что они видели раньше?
Сэмпл: http://multi-up.com/1213616-работа со звуком - lipovan-Качество: WEB-DLRip
Формат: AVI
Видео: 720x400 (16:9), 23.976 fps, XviD build 65, 2000 Kbps
Аудио 1: AC3, 48.0 KHz, 2 ch, 384 kbps [Rus]
Аудио 2: AC3, 48.0 KHz, 6 ch, 384 kbps [Eng]
Субтитры: Отсутствуют-Реклама: Отсутствует-[url=tracker.php?nm=DC's%20Legends%20of%20Tomorrow]Предыдущие и альтернативные раздачи[/url]-

Список серий

01. Невинный Гэри / The Virgin Gary
02. Охота на ведьм / Witch Hunt
03. Королева танца / Dancing Queen
04. Жаркий американский отстой / Wet Hot American Bummer
05. Тагумо атакует!!! / Tagumo Attacks!!!
06. Нежен Нейт / Tender Is the Nate
07. Катись ты, куколка! / Hell No, Dolly!
08. Легенды завтрашнего мяу / Legends of To-Meow-Meow

MediaInfo

General
Complete name : Downloads\Legends of Tomorrow (Season 04) LostFilm\Legends.of.Tomorrow.S04E01.WEB-DLRip.Rus.Eng.Lostfilm.avi
Format : AVI
Format/Info : Audio Video Interleave
File size : 845 MiB
Duration : 42mn 28s
Overall bit rate : 2 782 Kbps
Writing application : VirtualDubMod 1.5.10.2 (build 2540/release)
Writing library : VirtualDubMod build 2540/release
Video #0
ID : 0
Format : MPEG-4 Visual
Format profile : Advanced Simple@L5
Format settings, BVOP : 1
Format settings, QPel : No
Format settings, GMC : No warppoints
Format settings, Matrix : Default (MPEG)
Codec ID : XVID
Codec ID/Hint : XviD
Duration : 42mn 28s
Bit rate : 2 000 Kbps
Width : 720 pixels
Height : 400 pixels
Display aspect ratio : 16:9
Frame rate : 23.976 fps
Color space : YUV
Chroma subsampling : 4:2:0
Bit depth : 8 bits
Scan type : Progressive
Compression mode : Lossy
Bits/(Pixel*Frame) : 0.290
Stream size : 607 MiB (72%)
Writing library : XviD 65
Audio #1
ID : 1
Format : AC-3
Format/Info : Audio Coding 3
Mode extension : CM (complete main)
Format settings, Endianness : Big
Codec ID : 2000
Duration : 42mn 28s
Bit rate mode : Constant
Bit rate : 384 Kbps
Channel(s) : 2 channels
Channel positions : Front: L R
Sampling rate : 48.0 KHz
Bit depth : 16 bits
Compression mode : Lossy
Stream size : 117 MiB (14%)
Alignment : Split accross interleaves
Interleave, duration : 42 ms (1.00 video frame)
Interleave, preload duration : 500 ms
Audio #2
ID : 2
Format : AC-3
Format/Info : Audio Coding 3
Mode extension : CM (complete main)
Format settings, Endianness : Big
Codec ID : 2000
Duration : 42mn 28s
Bit rate mode : Constant
Bit rate : 384 Kbps
Channel(s) : 6 channels
Channel positions : Front: L C R, Side: L R, LFE
Sampling rate : 48.0 KHz
Bit depth : 16 bits
Compression mode : Lossy
Stream size : 117 MiB (14%)
Alignment : Split accross interleaves
Interleave, duration : 42 ms (1.00 video frame)
Interleave, preload duration : 500 ms

Скриншоты

Внимание! Раздача ведётся путём добавления новых серий:

(1) остановить скачивание,
(2) удалить старый торрент у себя из клиента (старые серии удалять не надо),
(3) скачать новый торрент и запустить его у себя в клиенте вместо старого, при этом указать клиенту путь в старую папку куда и должно происходить скачивание новых серий.
Ваш клиент при этом должен произвести хеширование (проверку) старой папки (если не производит сам - помогите ему сделать это), и будет докачивать только те серии которых у вас ещё нет. Старые серии при этом не удаляются, а продолжают раздаваться!
Eсли вы уже удалили старые серии, то предотвратить повторную закачку старых серий можно, отжав галочку в соответсвующих местах при запуске нового торрента. По возможности, желательно не удалять старые серии как можно дольше чтобы релизёр не столько продолжал раздавать старые серии, а смог сконцентрироваться на новых
.

Если ваш рейтинг упадет ниже 0,3, вы не сможете скачивать торренты! Подробнее о рейтинге.

[cybertorrent.ru].t1941.torrent 
Торрент: Зарегистрирован [ 2019-04-12 16:55 ] · 254F2E50E8212EC43020A6DD3FCFC88311A7EE1D

Скачать .torrent

Скачать

42 KB

Статус: проверено
Скачан: 0 раз
Размер: 8,22 GB
terms.php
[Профиль] [ЛС]
Показать сообщения:    
Ответить на тему

Текущее время: 19-Апр 14:38

Часовой пояс: UTC ± 0



Вы не можете начинать темы
Вы не можете отвечать на сообщения
Вы не можете редактировать свои сообщения
Вы не можете удалять свои сообщения
Вы не можете голосовать в опросах
Вы не можете прикреплять файлы к сообщениям
Вы можете скачивать файлы