Кадавр / The Possession of Hannah Grace (Дидерик Ван Ружен / Diederik Van Rooijen) [2018, США, ужасы, триллер, детектив, BDRip] Dub

Ответить на тему
Статистика раздачи
Размер:  1,46 GB   |    Зарегистрирован:  4 месяца 6 дней   |    Скачан:  0 раз

Полного источника не было: Никогда

   
 
Автор Сообщение

солнышко ®

Пол: Не указан

Стаж: 5 месяцев 6 дней

Сообщений: 529

Создавать темы 12-Апр-2019 16:54

[Цитировать]

Кадавр / The Possession of Hannah Grace
«Она умерла... Но это не точно»
- Год выхода: 2018
Страна: США
Жанр: ужасы, триллер, детектив
Продолжительность: 01:25:44
Перевод: Профессиональный (полное дублирование) BD EUR |Студия "Невафильм"|
Субтитры: нет-Режиссер:
Дидерик Ван Ружен / Diederik Van Rooijen-В ролях:
Шэй Митчелл, Стана Катик, Грэй Дэймон, Кирби Джонсон, Ник Тун, Луис Хертэм, Максимиллиан МакНамара, Джейкоб Минг-Трент, Джеймс А. Уотсон мл., Марианн Байяр-О фильме:
Во время обряда экзорцизма одержимая Ханна Грэйс убивает священника, после чего её отец сам душит дочь подушкой. Бывшая полицейская Меган Рид посещает группу анонимных алкоголиков, но никак не может избавиться от видений прошлого. Она устраивается работать по ночам в морг городской больницы Бостона, и в первую же смену туда поступает изуродованное тело девушки. Вскоре Меган начинает казаться, что в пустых коридорах морга кто-то есть, и с этим телом определённо что-то не так.-Релиз групп | | IMDB | КиноПоиск | Сэмпл |-Качество: BDRip [The.Possession.of.Hannah.Grace.2018.COMPLETE.BLURAY-LAZERS]
Формат: AVI
Видео: 720x304 (2.37:1), 23.976 fps, XviD build 67 ~2037 kbps avg, 0.39 bit/pixel
Аудио: 48 kHz, AC3 Dolby Digital, 3/2 (L,C,R,l,r) + LFE ch, ~448.00 kbps avg-

Скриншоты

-

MediaInfo

Код:Полное имя : G:\Kadavr_2018_BDRip_by_Dalemake.avi
Формат : AVI
Формат/Информация : Audio Video Interleave
Размер файла : 1,46 Гбайт
Продолжительность : 1 ч. 25 м.
Общий поток : 2436 Кбит/сек
Программа кодирования : VirtualDubMod 1.5.10.3 | www.virtualdub-fr.org || (build 2550/release)
Библиотека кодирования : VirtualDubMod build 2550/release
Видео
Идентификатор : 0
Формат : MPEG-4 Visual
Профиль формата : Advanced Simple@L5
Параметр BVOP формата : 1
Параметр QPel формата : Нет
Параметр GMC формата : Без точки перехода
Параметр матрицы формата : Выборочная
Идентификатор кодека : XVID
Идентификатор кодека/Подсказка : XviD
Продолжительность : 1 ч. 25 м.
Битрейт : 2038 Кбит/сек
Ширина : 720 пикселей
Высота : 304 пикселя
Соотношение сторон : 2,35:1
Частота кадров : 23,976 кадра/сек
Цветовое пространство : YUV
Субдискретизация насыщенности : 4:2:0
Битовая глубина : 8 бит
Тип развёртки : Прогрессивная
Метод сжатия : С потерями
Бит/(Пиксели*Кадры) : 0.388
Размер потока : 1,22 Гбайт (84%)
Библиотека кодирования : XviD 67
Аудио #1
Идентификатор : 1
Формат : AC-3
Формат/Информация : Audio Coding 3
Расширение режима : CM (complete main)
Параметр Endianness формата : Big
Идентификатор кодека : 2000
Продолжительность : 1 ч. 25 м.
Вид битрейта : Постоянный
Битрейт : 192 Кбит/сек
Каналы : 2 канала
Расположение каналов : Front: L R
Частота : 48,0 КГц
Метод сжатия : С потерями
Размер потока : 118 Мбайт (8%)
Выравнивание : Разделение по промежуткам
Продолжительность промежутка : 42 мс. (1,00 видеокадр)
Время предзагрузки промежутка : 500 мс.
Аудио #2
Идентификатор : 2
Формат : AC-3
Формат/Информация : Audio Coding 3
Расширение режима : CM (complete main)
Параметр Endianness формата : Big
Идентификатор кодека : 2000
Продолжительность : 1 ч. 25 м.
Вид битрейта : Постоянный
Битрейт : 192 Кбит/сек
Каналы : 2 канала
Расположение каналов : Front: L R
Частота : 48,0 КГц
Метод сжатия : С потерями
Размер потока : 118 Мбайт (8%)
Выравнивание : Разделение по промежуткам
Продолжительность промежутка : 42 мс. (1,00 видеокадр)
Время предзагрузки промежутка : 500 мс.
-
[cybertorrent.ru].t1945.torrent 
Торрент: Зарегистрирован [ 2019-04-12 16:55 ] · A3B1F839D699D1B2422D16C2441874EBB0A44268

Скачать .torrent

Скачать

15 KB

Статус: проверено
Скачан: 0 раз
Размер: 1,46 GB
terms.php
[Профиль] [ЛС]
Показать сообщения:    
Ответить на тему

Текущее время: 19-Авг 05:32

Часовой пояс: UTC ± 0



Вы не можете начинать темы
Вы не можете отвечать на сообщения
Вы не можете редактировать свои сообщения
Вы не можете удалять свои сообщения
Вы не можете голосовать в опросах
Вы не можете прикреплять файлы к сообщениям
Вы можете скачивать файлы