1+1: Голливудская история / The Upside (Нил Бёргер / Neil Burger) [2018, США, драма, комедия, WEB-DLRip] Dub

Ответить на тему
Статистика раздачи
Размер:  1,46 GB   |    Зарегистрирован:  4 месяца 5 дней   |    Скачан:  0 раз

Полного источника не было: Никогда

   
 
Автор Сообщение

солнышко ®

Пол: Не указан

Стаж: 5 месяцев 6 дней

Сообщений: 526

Создавать темы 12-Апр-2019 16:54

[Цитировать]

1+1: Голливудская история / The Upside
«Одинокий миллиардер в поисках острых ощущений»
- Год выхода: 2018
Страна: США
Производство: The Weinstein Company
Жанр: драма, комедия
Продолжительность: 02:05:48
Перевод: Профессиональный (полное дублирование)
Субтитры: нет-Режиссер:
Нил Бёргер / Neil Burger-В ролях:
Брайан Крэнстон, Кевин Харт, Николь Кидман, Эйджа Наоми Кинг, Джахи Диалло Уинстон, Женевьева Энджелсон, Голшифте Фарахани, Тейт Донован, Джулианна Маргулис, Сюзанн Савой, Майкл Куинлэн, Рэйчел Кристофер, Диего Агирр, Фернандо Матео мл., Кимберли С. Фербенкс, Рэйчел Алана Хэндлер, Рики Гарсиа, Дж.Дж. Филлипс, Амара Каран-О фильме:
Пентхаус в Нью Йорке, целый гараж коллекционных автомобилей и миллиарды скучающих президентов на банковском счету.
Если есть тот, кто готов рискнуть состоянием ради минуты подлинного счастья, найдется и тот, кто ему в этом поможет.-Релиз групп | | IMDB | КиноПоиск | Сэмпл |-Качество: WEB-DLRip
Формат: AVI
Видео: 704x384 (1.83:1), 24.000 fps, XviD build 67 ~1267 kbps avg, 0.20 bit/pixel
Аудио: 48 kHz, AC3 Dolby Digital, 3/2 (L,C,R,l,r) + LFE ch, ~384 kbps avg - iTunes Russia-

Скриншоты

-

MediaInfo

Код:Полное имя : G:\The_Upside_2018_WEB-DLRip_iT_by_Dalemake.avi
Формат : AVI
Формат/Информация : Audio Video Interleave
Размер файла : 1,46 Гбайт
Продолжительность : 2 ч. 5 м.
Общий поток : 1660 Кбит/сек
Программа кодирования : VirtualDubMod 1.5.10.3 | www.virtualdub-fr.org || (build 2550/release)
Библиотека кодирования : VirtualDubMod build 2550/release
Видео
Идентификатор : 0
Формат : MPEG-4 Visual
Профиль формата : Advanced Simple@L5
Параметр BVOP формата : 1
Параметр QPel формата : Нет
Параметр GMC формата : Без точки перехода
Параметр матрицы формата : Выборочная
Идентификатор кодека : XVID
Идентификатор кодека/Подсказка : XviD
Продолжительность : 2 ч. 5 м.
Битрейт : 1267 Кбит/сек
Ширина : 704 пикселя
Высота : 384 пикселя
Соотношение сторон : 1,85:1
Частота кадров : 24,000 кадра/сек
Цветовое пространство : YUV
Субдискретизация насыщенности : 4:2:0
Битовая глубина : 8 бит
Тип развёртки : Прогрессивная
Метод сжатия : С потерями
Бит/(Пиксели*Кадры) : 0.195
Размер потока : 1,11 Гбайт (76%)
Библиотека кодирования : XviD 67
Аудио
Идентификатор : 1
Формат : AC-3
Формат/Информация : Audio Coding 3
Расширение режима : CM (complete main)
Параметр Endianness формата : Big
Идентификатор кодека : 2000
Продолжительность : 2 ч. 5 м.
Вид битрейта : Постоянный
Битрейт : 384 Кбит/сек
Каналы : 6 каналов
Расположение каналов : Front: L C R, Side: L R, LFE
Частота : 48,0 КГц
Битовая глубина : 16 бит
Метод сжатия : С потерями
Размер потока : 346 Мбайт (23%)
Выравнивание : Разделение по промежуткам
Продолжительность промежутка : 42 мс. (1,00 видеокадр)
Время предзагрузки промежутка : 500 мс.
-
[cybertorrent.ru].t1951.torrent 
Торрент: Зарегистрирован [ 2019-04-12 16:55 ] · 88A3F9E2DE737064143EEC78353703F7565307CC

Скачать .torrent

Скачать

15 KB

Статус: проверено
Скачан: 0 раз
Размер: 1,46 GB
terms.php
[Профиль] [ЛС]
Показать сообщения:    
Ответить на тему

Текущее время: 18-Авг 14:53

Часовой пояс: UTC ± 0



Вы не можете начинать темы
Вы не можете отвечать на сообщения
Вы не можете редактировать свои сообщения
Вы не можете удалять свои сообщения
Вы не можете голосовать в опросах
Вы не можете прикреплять файлы к сообщениям
Вы можете скачивать файлы