Русская невеста / The Russian Bride (Майкл С. Ойеда / Michael S. Ojeda) [2019, США, ужасы, триллер, WEB-DLRip] MVO (HDRezka Studio) + Original (Eng)

Ответить на тему
Статистика раздачи
Размер:  1,46 GB   |    Зарегистрирован:  12 дней   |    Скачан:  0 раз
Сидов:  35  [  0 KB/s  ]   Личеров:  2  [  0 KB/s  ]  
   
 
Автор Сообщение

Lew ®

Пол: Не указан

Стаж: 1 месяц 13 дней

Сообщений: 86

Создавать темы 12-Апр-2019 16:54

[Цитировать]

Русская невеста / The Russian Bride- Год выхода: 2019
Страна: США
Жанр: ужасы, триллер
Продолжительность: 01:41:23
Перевод: Любительский (многоголосый закадровый) HDRezka Studio
Субтитры: Английские (хардсаб на Русскую речь)
Оригинальная аудиодорожка: Английская-Режиссер:
Майкл С. Ойеда / Michael S. Ojeda-В ролях:
Корбин Бернсен, Оксана Орлан, Кристина Пименова, Лиза Гудман, Майкл Роберт Брэндон, Элисон Корман, Кинэн Джонстон, Грегори О'Галлахер, Ефим Сомен, Кеннет Г. Боден-О фильме:
Русская женщина едет в Америку со своей дочерью, чтобы выйти замуж за миллиардера-затворника. Однако идиллия длится недолго: супруг оказывается психопатом.-Релиз групп | | IMDB | КиноПоиск | Сэмпл |-Качество: WEB-DLRip
Формат: AVI
Видео: 704x320 (2.20:1), 23.976 fps, XviD build 67 ~1664 kbps avg, 0.31 bit/pixel
Аудио #1: 48 kHz, AC3 Dolby Digital, 2/0 (L,R) ch, ~192 kbps avg (RUS)
Аудио #2: 48 kHz, AC3 Dolby Digital, 2/0 (L,R) ch, ~192 kbps avg (ENG)-

Скриншоты

-

MediaInfo

Код:Полное имя : D:\Russkaya_nevesta_2019_WEB-DLRip_MVO_by_Dalemake.avi
Формат : AVI
Формат/Информация : Audio Video Interleave
Размер файла : 1,46 Гбайт
Продолжительность : 1 ч. 41 м.
Общий поток : 2063 Кбит/сек
Программа кодирования : VirtualDubMod 1.5.10.3 | www.virtualdub-fr.org || (build 2550/release)
Библиотека кодирования : VirtualDubMod build 2550/release
Видео
Идентификатор : 0
Формат : MPEG-4 Visual
Профиль формата : Advanced Simple@L5
Параметр BVOP формата : 1
Параметр QPel формата : Нет
Параметр GMC формата : Без точки перехода
Параметр матрицы формата : Выборочная
Идентификатор кодека : XVID
Идентификатор кодека/Подсказка : XviD
Продолжительность : 1 ч. 41 м.
Битрейт : 1665 Кбит/сек
Ширина : 704 пикселя
Высота : 320 пикселей
Соотношение сторон : 2,2:1
Частота кадров : 23,976 кадра/сек
Цветовое пространство : YUV
Субдискретизация насыщенности : 4:2:0
Битовая глубина : 8 бит
Тип развёртки : Прогрессивная
Метод сжатия : С потерями
Бит/(Пиксели*Кадры) : 0.308
Размер потока : 1,18 Гбайт (81%)
Библиотека кодирования : XviD 67
Аудио #1
Идентификатор : 1
Формат : AC-3
Формат/Информация : Audio Coding 3
Расширение режима : CM (complete main)
Параметр Endianness формата : Big
Идентификатор кодека : 2000
Продолжительность : 1 ч. 41 м.
Вид битрейта : Постоянный
Битрейт : 192 Кбит/сек
Каналы : 2 канала
Расположение каналов : Front: L R
Частота : 48,0 КГц
Битовая глубина : 16 бит
Метод сжатия : С потерями
Размер потока : 139 Мбайт (9%)
Выравнивание : Разделение по промежуткам
Продолжительность промежутка : 42 мс. (1,00 видеокадр)
Время предзагрузки промежутка : 500 мс.
Аудио #2
Идентификатор : 2
Формат : AC-3
Формат/Информация : Audio Coding 3
Расширение режима : CM (complete main)
Параметр Endianness формата : Big
Идентификатор кодека : 2000
Продолжительность : 1 ч. 41 м.
Вид битрейта : Постоянный
Битрейт : 192 Кбит/сек
Каналы : 2 канала
Расположение каналов : Front: L R
Частота : 48,0 КГц
Битовая глубина : 16 бит
Метод сжатия : С потерями
Размер потока : 139 Мбайт (9%)
Выравнивание : Разделение по промежуткам
Продолжительность промежутка : 42 мс. (1,00 видеокадр)
Время предзагрузки промежутка : 500 мс.
-

Если ваш рейтинг упадет ниже 0,3, вы не сможете скачивать торренты! Подробнее о рейтинге.

[cybertorrent.ru].t1959.torrent 
Торрент: Зарегистрирован [ 2019-04-12 16:55 ] · EDF23C9C5521E00C4F8B98FD2BF75B3CAAC2A8D1

Скачать .torrent

Скачать

15 KB

Статус: проверено
Скачан: 0 раз
Размер: 1,46 GB
terms.php
[Профиль] [ЛС]
Показать сообщения:    
Ответить на тему

Текущее время: 25-Апр 13:49

Часовой пояс: UTC ± 0



Вы не можете начинать темы
Вы не можете отвечать на сообщения
Вы не можете редактировать свои сообщения
Вы не можете удалять свои сообщения
Вы не можете голосовать в опросах
Вы не можете прикреплять файлы к сообщениям
Вы можете скачивать файлы