Музыкальная шутка (Дмитрий Бабиченко) [1944, СССР, мультфильм, WEBRip]

Ответить на тему
Статистика раздачи
Размер:  79 MB   |    Зарегистрирован:  4 месяца 2 дня   |    Скачан:  0 раз

Полного источника не было: Никогда

   
 
Автор Сообщение

xelon ®

Пол: Не указан

Стаж: 4 месяца 8 дней

Сообщений: 94

Создавать темы 18-Мар-2019 10:01

[Цитировать]

Музыкальная шутка
Страна: СССР
Жанр: мультфильм
Продолжительность: 00:09:21
Год выпуска: 1944
Режиссёр: Дмитрий Бабиченко
Описание: Весёлые зверята устраивают музыкально-танцевальный концерт. В программе: "Танец Анитры" Грига, танец на музыку Чаплина из фильма "Новые времена", народная плясовая, танец Кармен на музыку Бизе и вариация на музыку Моцарта из "Женитьбы Фигаро".
Качество: WEBRip
Формат: AVI
Видео: 981 kbps, 576х432 (4:3), 25.000 fps, MPEG-4 Visual (XviD)
Аудио: 192 kbps, 44.1 kHz, 2 channels, MPEG Audio (MP3)
Субтитры: отсутствуют

Подробные технические данные

General
Complete name : Музыкальная шутка (1944).avi
Format : AVI
Format/Info : Audio Video Interleave
File size : 79.2 MiB
Duration : 9mn 21s
Overall bit rate : 1 183 Kbps
Writing application : MEncoder SVN-r30881(20100311-gcc4.3.3)
Writing library : VirtualDub build 35491/release
Video
ID : 0
Format : MPEG-4 Visual
Format profile : Advanced Simple@L5
Format settings, BVOP : 2
Format settings, QPel : No
Format settings, GMC : No warppoints
Format settings, Matrix : Default (H.263)
Codec ID : XVID
Codec ID/Hint : XviD
Duration : 9mn 21s
Bit rate : 981 Kbps
Width : 576 pixels
Height : 432 pixels
Display aspect ratio : 4:3
Frame rate : 25.000 fps
Color space : YUV
Chroma subsampling : 4:2:0
Bit depth : 8 bits
Scan type : Progressive
Compression mode : Lossy
Bits/(Pixel*Frame) : 0.158
Stream size : 65.7 MiB (83%)
Writing library : XviD 73
Audio
ID : 1
Format : MPEG Audio
Format version : Version 1
Format profile : Layer 3
Mode : Joint stereo
Mode extension : MS Stereo
Codec ID : 55
Codec ID/Hint : MP3
Duration : 9mn 21s
Bit rate mode : Constant
Bit rate : 192 Kbps
Channel(s) : 2 channels
Sampling rate : 44.1 KHz
Compression mode : Lossy
Stream size : 12.9 MiB (16%)
Alignment : Split accross interleaves
Interleave, duration : 40 ms (1.00 video frame)
Interleave, preload duration : 500 ms
Writing library : LAME3.98

Скриншоты

[cybertorrent.ru].t197.torrent 
Торрент: Зарегистрирован [ 2019-03-18 10:04 ] · AFE1747CFA01F3BA68338771B7123F43C949B171

Скачать .torrent

Скачать

13 KB

Статус: проверено
Скачан: 0 раз
Размер: 79 MB
terms.php
[Профиль] [ЛС]
Показать сообщения:    
Ответить на тему

Текущее время: 21-Июл 03:05

Часовой пояс: UTC ± 0



Вы не можете начинать темы
Вы не можете отвечать на сообщения
Вы не можете редактировать свои сообщения
Вы не можете удалять свои сообщения
Вы не можете голосовать в опросах
Вы не можете прикреплять файлы к сообщениям
Вы можете скачивать файлы