Новый Амстердам / New Amsterdam / Сезон: 1 / Серии: 1-10 из 22 (Кейт Дэннис) [2018, США, Драма, WEBRip] DVO (Gears Media) + Original

Ответить на тему
Статистика раздачи
Размер:  5,27 GB   |    Зарегистрирован:  4 месяца 5 дней   |    Скачан:  0 раз

Полного источника не было: Никогда

   
 
Автор Сообщение

Рамфоринх ®

Пол: Не указан

Стаж: 5 месяцев 6 дней

Сообщений: 351

Создавать темы 13-Апр-2019 17:23

[Цитировать]

Новый Амстердам / New Amsterdam
Год выпуска: 2018
Страна: США
Жанр: Драма
Продолжительность: ~ 00:43:00
Перевод: Профессиональный (двухголосый закадровый)[Gears Media]
Режиссёр: Кейт Дэннис
В ролях: Кристофер Кассарино, Стэйси Элис Коэн, Стэйси Рэймонд, Лиззи ДеКлемент, Вера Лам, Райан Эгголд, Фрима Аджьеман, Джанет Монтгомери, Джоко Симс, Анупам Кхер
Описание:
Опытный специалист Макс Гудвин становится новым главврачом старейшей государственной больницы США «Новый Амстердам». Его цель — вернуть былой престиж больнице, в которой сейчас не хватает персонала, оборудования и финансирования. Несмотря на все его старания, сотрудники пока не готовы довериться Гудвину: его предшественники также обещали привести больницу в порядок, но их заверения оставались просто словами.
Ссылка на предыдущие и альтернативные раздачи: http://cybertorrent.ru/forum/tracker.php?nm=New+Amsterdam
Сэмпл: http://multi-up.com/1210154
Качество: WEBRip
Формат: AVI
Видео: XviD, 720x400 at 23.976 fps, ~1500 kbps avg
Аудио1: Russian, MP3, 48 kHz, 2 ch, 128 kbps
Аудио2: English, MP3, 48 kHz, 2 ch, 128 kbps
Субтитры: нет
Реклама: аудио (два раза, в начале и конце, по 12 сек.)

MediaInfo

Format : AVI
Format/Info : Audio Video Interleave
File size : 537 MiB
Duration : 43 min 15 s
Overall bit rate : 1 734 kb/s
Writing application : Lavf57.29.101
Video
ID : 0
Format : xvid
Codec ID : xvid
Duration : 43 min 15 s
Bit rate : 1 458 kb/s
Width : 720 pixels
Height : 400 pixels
Display aspect ratio : 16:9
Frame rate : 23.976 (24000/1001) FPS
Scan type : Progressive
Bits/(Pixel*Frame) : 0.211
Stream size : 451 MiB (84%)
Audio #1
ID : 1
Format : MPEG Audio
Format version : Version 1
Format profile : Layer 3
Format settings : Joint stereo / MS Stereo
Codec ID : 55
Codec ID/Hint : MP3
Duration : 43 min 15 s
Bit rate mode : Constant
Bit rate : 128 kb/s
Channel(s) : 2 channels
Sampling rate : 48.0 kHz
Compression mode : Lossy
Stream size : 39.6 MiB (7%)
Alignment : Aligned on interleaves
Interleave, duration : 24 ms (0.58 video frame)
Interleave, preload duratio : 24 ms
Title : Gears Media
Writing library : LAME3.99.5
Audio #2
ID : 2
Format : MPEG Audio
Format version : Version 1
Format profile : Layer 3
Format settings : Joint stereo
Codec ID : 55
Codec ID/Hint : MP3
Duration : 43 min 15 s
Bit rate mode : Constant
Bit rate : 128 kb/s
Channel(s) : 2 channels
Sampling rate : 48.0 kHz
Compression mode : Lossy
Stream size : 39.6 MiB (7%)
Alignment : Aligned on interleaves
Interleave, duration : 24 ms (0.58 video frame)
Writing library : LAME3.99.5

Скриншоты

Внимание! Раздача ведётся путём добавления новых серий

Внимание! Раздача ведётся путём добавления новых серий; при каждом добавлении создаётся новый торрент. Чтобы начать докачку новой серии, пользователям необходимо сделать следующее:
(1) остановить скачивание,
(2) удалить старый торрент у себя из клиента (старые серии удалять не надо),
(3) скачать новый торрент и запустить его у себя в клиенте вместо старого, при этом указать клиенту путь в старую папку куда и должно происходить скачивание новых серий.
Ваш клиент при этом должен произвести хеширование (проверку) старой папки (если не производит сам - помогите ему сделать это), и будет докачивать только те серии которых у вас ещё нет. Старые серии при этом не удаляются, а продолжают раздаваться!
Eсли вы уже удалили старые серии, то предотвратить повторную закачку старых серий можно, отжав галочку в соответствующих местах при запуске нового торрента. По возможности, желательно не удалять старые серии как можно дольше чтобы релизёр не столько продолжал раздавать старые серии, а смог сконцентрироваться на новых.
[cybertorrent.ru].t1977.torrent 
Торрент: Зарегистрирован [ 2019-04-13 17:23 ] · 2BE93E3DC9665B37520F9A7ED0A0755BD030B5A6

Скачать .torrent

Скачать

28 KB

Статус: проверено
Скачан: 0 раз
Размер: 5,27 GB
terms.php
[Профиль] [ЛС]
Показать сообщения:    
Ответить на тему

Текущее время: 19-Авг 05:51

Часовой пояс: UTC ± 0



Вы не можете начинать темы
Вы не можете отвечать на сообщения
Вы не можете редактировать свои сообщения
Вы не можете удалять свои сообщения
Вы не можете голосовать в опросах
Вы не можете прикреплять файлы к сообщениям
Вы можете скачивать файлы