Новый Амстердам / New Amsterdam / Сезон: 1 / Серии: 1-16 из 22 (Кейт Дэннис, Питер Хортон, Дарнелл Мартин, Джонас Пейт) [2018, США, Драма, WEB-DLRip] MVO (NewStudio) + Original

Ответить на тему
Статистика раздачи
Размер:  8,52 GB   |    Зарегистрирован:  4 месяца 4 дня   |    Скачан:  0 раз
Сидов:  8  [  0 KB/s  ]   Личеров:  1  [  0 KB/s  ]  
   
 
Автор Сообщение

Рамфоринх ®

Пол: Не указан

Стаж: 5 месяцев 6 дней

Сообщений: 347

Создавать темы 13-Апр-2019 17:23

[Цитировать]

Новый Амстердам | New Amsterdam- Год выпуска: 2018
Страна: США
Жанр: Драма
Продолжительность: ~ 00:43:00-Перевод: Профессиональный (многоголосый закадровый) | NewStudio-Режиссёр: Кейт Дэннис, Питер Хортон, Дарнелл Мартин, Джонас Пейт-В ролях: Кристофер Кассарино, Стэйси Элис Коэн, Стэйси Рэймонд, Лиззи ДеКлемент, Вера Лам, Райан Эгголд, Фрима Аджьеман, Джанет Монтгомери, Джоко Симс, Анупам Кхер-Описание: Опытный специалист Макс Гудвин становится новым главврачом старейшей государственной больницы США «Новый Амстердам». Его цель — вернуть былой престиж больнице, в которой сейчас не хватает персонала, оборудования и финансирования. Несмотря на все его старания, сотрудники пока не готовы довериться Гудвину: его предшественники также обещали привести больницу в порядок, но их заверения оставались просто словами.- -[box=#aed8ff,#003465]Ссылка на предыдущие и альтернативные раздачи[/box]-Качество: WEB-DLRip
Формат: AVI
Видео: XviD, 720x400, 23,976 fps, ~1500 kbps
Аудио Rus: MP3, 48 kHz, 2 ch, 128 kbps | NewStudio
Аудио Eng: MP3, 48 kHz, 2 ch, 128 kbps
Субтитры: Русские (Форсированные)
Реклама: Отсутствует-

✘ Релиз ✘

Рип: DriverV
-

Список серий

01. Pilot / Пилотная серия
02. Rituals / Ритуалы
03. Every Last Minute / Каждая последняя минута
04. Boundaries / Границы
05. Cavitation / Опустение
06. Anthropocene / Антропоцен
07. Domino Effect / Эффект домино
08. Three Dots / Троеточие
09. As Long as It Takes / Столько, сколько нужно
10. Six or Seven Minutes / Шесть, или семь минут
11. A Seat at the Table / Место за столом
12. Anima Sola / Анима Сола
13. The Blues / Блюз
14. The Forsaken / Брошенный
-

MediaInfo

Общее
Полное имя : D:\Новый Амстердам (сезон 1) New Amsterdam (2018) WEB-DLRip - NewStudio\New.Amsterdam.S01E01.WEB-DLRip.Rus.Eng.DV.NewStudio.avi
Формат : AVI
Формат/Информация : Audio Video Interleave
Размер файла : 546 Мбайт
Продолжительность : 42 м. 59 с.
Общий поток : 1774 Кбит/сек
Название фильма : New.Amsterdam.S01E01.WEB-DLRip.Rus.Eng.DV.NewStudio / NNM-Club
Программа кодирования : VirtualDubModRus 1.5.10.2 (build 2542/release)
Библиотека кодирования : VirtualDubMod build 2542/release
Видео
Идентификатор : 0
Формат : MPEG-4 Visual
Профиль формата : Advanced Simple@L5
Настройки формата : BVOP2
Параметр BVOP формата : 2
Параметр QPel формата : Нет
Параметр GMC формата : Без точки перехода
Параметр матрицы формата : Default (H.263)
Идентификатор кодека : XVID
Идентификатор кодека/Подсказка : XviD
Продолжительность : 42 м. 59 с.
Битрейт : 1504 Кбит/сек
Ширина : 720 пикселей
Высота : 400 пикселей
Соотношение сторон : 16:9
Частота кадров : 23,976 (24000/1001) кадра/сек
Цветовое пространство : YUV
Субдискретизация насыщенности : 4:2:0
Битовая глубина : 8 бит
Тип развёртки : Прогрессивная
Метод сжатия : С потерями
Бит/(Пиксели*Кадры) : 0.218
Размер потока : 463 Мбайт (85%)
Заголовок : Rip by DriverV / NNM-Club
Библиотека кодирования : XviD 67
Аудио #1
Идентификатор : 1
Формат : MPEG Audio
Версия формата : Version 1
Профиль формата : Layer 3
Настройки формата : Joint stereo / MS Stereo
Идентификатор кодека : 55
Идентификатор кодека/Подсказка : MP3
Продолжительность : 42 м. 59 с.
Вид битрейта : Постоянный
Битрейт : 128 Кбит/сек
Каналы : 2 канала
Частота : 48,0 КГц
Метод сжатия : С потерями
Размер потока : 39,4 Мбайт (7%)
Выравнивание : Соединение по промежуткам
Продолжительность промежутка : 42 мс. (1,00 видеокадр)
Время предзагрузки промежутка : 504 мс.
Аудио #2
Идентификатор : 2
Формат : MPEG Audio
Версия формата : Version 1
Профиль формата : Layer 3
Настройки формата : Joint stereo / MS Stereo
Идентификатор кодека : 55
Идентификатор кодека/Подсказка : MP3
Продолжительность : 42 м. 59 с.
Вид битрейта : Постоянный
Битрейт : 128 Кбит/сек
Каналы : 2 канала
Частота : 48,0 КГц
Метод сжатия : С потерями
Размер потока : 39,4 Мбайт (7%)
Выравнивание : Соединение по промежуткам
Продолжительность промежутка : 42 мс. (1,00 видеокадр)
Время предзагрузки промежутка : 504 мс.
-

Скриншоты

-

Внимание! Раздача ведётся путём добавления новых серий

Внимание! Раздача ведётся путём добавления новых серий; при каждом добавлении создаётся новый торрент. Чтобы начать докачку новой серии, пользователям необходимо сделать следующее:
(1) остановить скачивание,
(2) удалить старый торрент у себя из клиента (старые серии удалять не надо),
(3) скачать новый торрент и запустить его у себя в клиенте вместо старого, при этом указать клиенту путь в старую папку куда и должно происходить скачивание новых серий.
Ваш клиент при этом должен произвести хеширование (проверку) старой папки (если не производит сам - помогите ему сделать это), и будет докачивать только те серии которых у вас ещё нет. Старые серии при этом не удаляются, а продолжают раздаваться!
Eсли вы уже удалили старые серии, то предотвратить повторную закачку старых серий можно, отжав галочку в соответствующих местах при запуске нового торрента. По возможности, желательно не удалять старые серии как можно дольше чтобы релизёр не столько продолжал раздавать старые серии, а смог сконцентрироваться на новых.
[cybertorrent.ru].t1980.torrent 
Торрент: Зарегистрирован [ 2019-04-13 17:23 ] · 5F2EA81CCFCCE1F102044927B1659AA3ED76A39B

Скачать .torrent

Скачать

24 KB

Статус: проверено
Скачан: 0 раз
Размер: 8,52 GB
terms.php
[Профиль] [ЛС]
Показать сообщения:    
Ответить на тему

Текущее время: 18-Авг 14:52

Часовой пояс: UTC ± 0



Вы не можете начинать темы
Вы не можете отвечать на сообщения
Вы не можете редактировать свои сообщения
Вы не можете удалять свои сообщения
Вы не можете голосовать в опросах
Вы не можете прикреплять файлы к сообщениям
Вы можете скачивать файлы