30 миль из ниоткуда / 30 Miles from Nowhere (Кэйтлин Коллер / Caitlin Koller) [2018, США, триллер, WEB-DLRip] MVO (HDRezka Studio)

Ответить на тему
Статистика раздачи
Размер:  1,46 GB   |    Зарегистрирован:  5 дней   |    Скачан:  0 раз
Сидов:  20  [  0 KB/s  ]  
   
 
Автор Сообщение

солнышко ®

Пол: Не указан

Стаж: 1 месяц 7 дней

Сообщений: 170

Создавать темы 13-Апр-2019 17:22

[Цитировать]

30 миль из ниоткуда / 30 Miles from Nowhere
Страна: США
Жанр: триллер
Год выпуска: 2018
Продолжительность: 01:24:58-Перевод: Любительский (многоголосый закадровый) | HDRezka Studio
Субтитры: нет
Оригинальная аудиодорожка: нет-Режиссер: Кэйтлин Коллер / Caitlin Koller-В ролях: Роберт Патрик Бенедикт, Кэрри Престон, Расти Швиммер, Мариэль Эйснер, Биргунди Бейкер, Эндрю Ротенберг, Кэти Шим, Уильям Смайли, Шона Кофоед, Роберт Брюлер-Описание: В центре сюжета находятся пятеро старых друзей, знакомых еще со времен учебы в колледже. Они не общались друг с другом уже несколько лет, но загадочное самоубийство шестого приятеля заставляет их воссоединиться спустя годы. Друзья приезжают в Висконсин и заселяются в отдаленный летний домик, где они любили отдыхать в молодости, чтобы почтить память умершего товарища и вспомнить былые времена. Сначала все идет именно так, как они и задумывали, однако вскоре ностальгическая встреча оборачивается настоящим кошмаром.-Качество видео: WEB-DLRip
Формат видео: AVI
Видео: 720x304 (2.37:1), 23.976 fps, XviD build 73 ~2275 kbps avg, 0.43 bit/pixel
Аудио: 48 kHz, AC3 Dolby Digital, 2/0 (L,R) ch, ~192 kbps-[box]Сэмпл[/box]-

MediaInfo

Код:Формат : AVI
Формат/Информация : Audio Video Interleave
Размер файла : 1,46 Гбайт
Продолжительность : 1 ч. 24 м.
Общий поток : 2476 Кбит/сек
Программа кодирования : VirtualDubMod 1.5.10.3 | www.virtualdub-fr.org || (build 2550/release)
Библиотека кодирования : VirtualDubMod build 2550/release
Видео
Идентификатор : 0
Формат : MPEG-4 Visual
Профиль формата : Advanced Simple@L5
Настройки формата : BVOP1 / Custom Matrix
Параметр BVOP формата : 1
Параметр QPel формата : Нет
Параметр GMC формата : Без точки перехода
Параметр матрицы формата : Выборочная
Идентификатор кодека : XVID
Идентификатор кодека/Подсказка : XviD
Продолжительность : 1 ч. 24 м.
Битрейт : 2275 Кбит/сек
Ширина : 720 пикселей
Высота : 304 пикселя
Соотношение сторон : 2,35:1
Частота кадров : 23,976 (24000/1001) кадра/сек
Цветовое пространство : YUV
Субдискретизация насыщенности : 4:2:0
Битовая глубина : 8 бит
Тип развёртки : Прогрессивная
Метод сжатия : С потерями
Бит/(Пиксели*Кадры) : 0.434
Размер потока : 1,34 Гбайт (92%)
Библиотека кодирования : XviD 73
Аудио
Идентификатор : 1
Формат : AC-3
Формат/Информация : Audio Coding 3
Коммерческое название : Dolby Digital
Идентификатор кодека : 2000
Продолжительность : 1 ч. 24 м.
Вид битрейта : Постоянный
Битрейт : 192 Кбит/сек
Каналы : 2 канала
Channel layout : L R
Частота : 48,0 КГц
Частота кадров : 31,250 кадров/сек (1536 SPF)
Битовая глубина : 16 бит
Метод сжатия : С потерями
Размер потока : 116 Мбайт (8%)
Выравнивание : Разделение по промежуткам
Продолжительность промежутка : 42 мс. (1,00 видеокадр)
Время предзагрузки промежутка : 500 мс.
ServiceKind/String : Complete Main

Скриншоты


Если ваш рейтинг упадет ниже 0,3, вы не сможете скачивать торренты! Подробнее о рейтинге.

[cybertorrent.ru].t1994.torrent 
Торрент: Зарегистрирован [ 2019-04-13 17:23 ] · 8315F36BB4589F593FAB94B95C869707DCD8560E

Скачать .torrent

Скачать

15 KB

Статус: проверено
Скачан: 0 раз
Размер: 1,46 GB
terms.php
[Профиль] [ЛС]
Показать сообщения:    
Ответить на тему

Текущее время: 19-Апр 14:38

Часовой пояс: UTC ± 0



Вы не можете начинать темы
Вы не можете отвечать на сообщения
Вы не можете редактировать свои сообщения
Вы не можете удалять свои сообщения
Вы не можете голосовать в опросах
Вы не можете прикреплять файлы к сообщениям
Вы можете скачивать файлы