Монстры на каникулах 3: Море зовёт / Hotel Transylvania 3: Summer Vacation (Генндий Тартаковский / Genndy Tartakovsky) [2018, США, мультфильм, фэнтези, комедия, семейный, BDRip] Dub (iTunes)

Ответить на тему
Статистика раздачи
Размер:  1,46 GB   |    Зарегистрирован:  2 месяца 13 дней   |    Скачан:  0 раз

Полного источника не было: Никогда

   
 
Автор Сообщение

admin ®

Пол: Не указан

Стаж: 2 месяца 14 дней

Сообщений: 4

Создавать темы 12-Мар-2019 12:57

[Цитировать]

Монстры на каникулах 3: Море зовёт / Hotel Transylvania 3: Summer Vacation
Страна: США
Жанр: мультфильм, фэнтези, комедия, семейный
Год выпуска: 2018
Продолжительность: 01:37:23-Перевод: Профессиональный (дублированный) | iTunes
Субтитры: нет
Оригинальная аудиодорожка: нет-Режиссер:
Генндий Тартаковский / Genndy Tartakovsky-В ролях:
Мэл Брукс, Адам Сэндлер, Селена Гомес, Энди Сэмберг, Кэтрин Хан, Фрэн Дрешер, Стив Бушеми, Дэвид Спейд, Тара Стронг, Кигэн-Майкл Ки-Описание:
На этот раз Дракула вместе со своими друзьями отправляется в круиз на шикарном лайнере. Развлечения там на любой вкус: от монстробаскетбола и экзотических экскурсий, до лунных ванн. Неожиданно Дракула влюбляется в капитана корабля — загадочную и прекрасную Эрику, и его дочка Мэвис понимает, что поездка может превратиться в кошмар: ведь Эрика хранит ужасный секрет, который ставит под угрозу существование всех монстров!-Качество видео: BDRip | HT3_SUMMER_VACATATION_2018_BLUEBIRD
Формат видео: AVI
Видео: 720x384 (1.88:1), 23.976 fps, XviD build 73 ~1757 kbps avg, 0.27 bit/pixel
Аудио: 48 kHz, AC3 Dolby Digital, 3/2 (L,C,R,l,r) + LFE ch, ~384 kbps-Сэмпл-

MediaInfo

Код:Формат : AVI
Формат/Информация : Audio Video Interleave
Размер файла : 1,46 Гбайт
Продолжительность : 1 ч. 37 м.
Общий поток : 2151 Кбит/сек
Программа кодирования : VirtualDubMod 1.5.10.3 | www.virtualdub-fr.org || (build 2550/release)
Библиотека кодирования : VirtualDubMod build 2550/release
Видео
Идентификатор : 0
Формат : MPEG-4 Visual
Профиль формата : Advanced Simple@L5
Настройки формата : BVOP1 / Custom Matrix
Параметр BVOP формата : 1
Параметр QPel формата : Нет
Параметр GMC формата : Без точки перехода
Параметр матрицы формата : Выборочная
Идентификатор кодека : XVID
Идентификатор кодека/Подсказка : XviD
Продолжительность : 1 ч. 37 м.
Битрейт : 1758 Кбит/сек
Ширина : 720 пикселей
Высота : 384 пикселя
Соотношение сторон : 1,85:1
Частота кадров : 23,976 (24000/1001) кадра/сек
Цветовое пространство : YUV
Субдискретизация насыщенности : 4:2:0
Битовая глубина : 8 бит
Тип развёртки : Прогрессивная
Метод сжатия : С потерями
Бит/(Пиксели*Кадры) : 0.265
Размер потока : 1,20 Гбайт (82%)
Библиотека кодирования : XviD 73
Аудио
Идентификатор : 1
Формат : AC-3
Формат/Информация : Audio Coding 3
Коммерческое название : Dolby Digital
Идентификатор кодека : 2000
Продолжительность : 1 ч. 37 м.
Вид битрейта : Постоянный
Битрейт : 384 Кбит/сек
Каналы : 6 каналов
Channel layout : L R C LFE Ls Rs
Частота : 48,0 КГц
Частота кадров : 31,250 кадров/сек (1536 SPF)
Битовая глубина : 16 бит
Метод сжатия : С потерями
Размер потока : 267 Мбайт (18%)
Выравнивание : Разделение по промежуткам
Продолжительность промежутка : 42 мс. (1,00 видеокадр)
Время предзагрузки промежутка : 500 мс.
ServiceKind/String : Complete Main

Скриншоты


[cybertorrent.ru].t2.torrent 
Торрент: Зарегистрирован [ 2019-03-12 12:57 ] · 6F5CA698EC6A0BD870B887002B79240D49EEF861

Скачать .torrent

Скачать

15 KB

Статус: проверено
Скачан: 0 раз
Размер: 1,46 GB
terms.php
[Профиль] [ЛС]
Показать сообщения:    
Ответить на тему

Текущее время: 26-Май 01:21

Часовой пояс: UTC ± 0



Вы не можете начинать темы
Вы не можете отвечать на сообщения
Вы не можете редактировать свои сообщения
Вы не можете удалять свои сообщения
Вы не можете голосовать в опросах
Вы не можете прикреплять файлы к сообщениям
Вы можете скачивать файлы