Последний мальчик / The Last Boy (Перри Бандал / Perry Bhandal) [2019, Великобритания, фантастика, драма, WEB-DLRip] MVO

Ответить на тему
Статистика раздачи
Размер:  1,46 GB   |    Зарегистрирован:  5 месяцев   |    Скачан:  0 раз

Полного источника не было: Никогда

   
 
Автор Сообщение

Lew ®

Пол: Не указан

Стаж: 5 месяцев 6 дней

Сообщений: 378

Создавать темы 18-Мар-2019 10:01

[Цитировать]

Последний мальчик / The Last Boy- Год выхода: 2019
Страна: Великобритания
Производство: Kirlian Pictures, PA Film Developments
Жанр: фантастика, драма
Продолжительность: 01:27:05
Перевод: Любительский (многоголосый закадровый)
Субтитры: нет-Режиссер:
Перри Бандал / Perry Bhandal-В ролях:
Люк Госс, Анна Уилсон-Джонс, Питер Гиннесс, Флинн Аллен, Анета Петровска, Матильда Фриман, Лоури Уолтон, Дженнифер Скотт, Джемма Берджесс-О фильме:
Мир на пороге конца света. Умирающая мать посылает своего маленького сына в путешествие к месту, где есть надежда на светлое будущее.-Релиз групп | | IMDB | КиноПоиск | Сэмпл |-Качество: WEB-DLRip [The.Last.Boy.2019.1080p.AMZN.WEB-DL.DDP5.1.H264-CMRG]
Формат: AVI
Видео: 704x400 (1.76:1), 24.000 fps, XviD build 67 ~2191 kbps avg, 0.32 bit/pixel
Аудио: 48 kHz, AC3 Dolby Digital, 2/0 (L,R) ch, ~192 kbps avg-

Скриншоты

-

MediaInfo

Код:Полное имя : D:\Poslednyi_malchik_2018_WEB-DLRip_MVO_by_Dalemake.avi
Формат : AVI
Формат/Информация : Audio Video Interleave
Размер файла : 1,46 Гбайт
Продолжительность : 1 ч. 27 м.
Общий поток : 2393 Кбит/сек
Программа кодирования : VirtualDubMod 1.5.10.3 | www.virtualdub-fr.org || (build 2550/release)
Библиотека кодирования : VirtualDubMod build 2550/release
Видео
Идентификатор : 0
Формат : MPEG-4 Visual
Профиль формата : Advanced Simple@L5
Параметр BVOP формата : 1
Параметр QPel формата : Нет
Параметр GMC формата : Без точки перехода
Параметр матрицы формата : Выборочная
Идентификатор кодека : XVID
Идентификатор кодека/Подсказка : XviD
Продолжительность : 1 ч. 27 м.
Битрейт : 2191 Кбит/сек
Ширина : 704 пикселя
Высота : 400 пикселей
Соотношение сторон : 16:9
Частота кадров : 24,000 кадра/сек
Цветовое пространство : YUV
Субдискретизация насыщенности : 4:2:0
Битовая глубина : 8 бит
Тип развёртки : Прогрессивная
Метод сжатия : С потерями
Бит/(Пиксели*Кадры) : 0.324
Размер потока : 1,33 Гбайт (92%)
Библиотека кодирования : XviD 67
Аудио
Идентификатор : 1
Формат : AC-3
Формат/Информация : Audio Coding 3
Расширение режима : CM (complete main)
Параметр Endianness формата : Big
Идентификатор кодека : 2000
Продолжительность : 1 ч. 27 м.
Вид битрейта : Постоянный
Битрейт : 192 Кбит/сек
Каналы : 2 канала
Расположение каналов : Front: L R
Частота : 48,0 КГц
Битовая глубина : 16 бит
Метод сжатия : С потерями
Размер потока : 120 Мбайт (8%)
Выравнивание : Разделение по промежуткам
Продолжительность промежутка : 42 мс. (1,00 видеокадр)
Время предзагрузки промежутка : 500 мс.
-При появлении проф. перевода рип будет перезалит!-
[cybertorrent.ru].t200.torrent 
Торрент: Зарегистрирован [ 2019-03-18 10:04 ] · D55C104D62F8DACD0556A768AFB1CD5C20A862CD

Скачать .torrent

Скачать

15 KB

Статус: проверено
Скачан: 0 раз
Размер: 1,46 GB
terms.php
[Профиль] [ЛС]
Показать сообщения:    
Ответить на тему

Текущее время: 19-Авг 04:19

Часовой пояс: UTC ± 0



Вы не можете начинать темы
Вы не можете отвечать на сообщения
Вы не можете редактировать свои сообщения
Вы не можете удалять свои сообщения
Вы не можете голосовать в опросах
Вы не можете прикреплять файлы к сообщениям
Вы можете скачивать файлы