Заблудившиеся / Stray (Джо Силл / Joe Sill) [2019, США, фэнтези, боевик, триллер, криминал, WEB-DLRip] MVO (HDRezka Studio)

Ответить на тему
Статистика раздачи
Размер:  1,45 GB   |    Зарегистрирован:  4 месяца 4 дня   |    Скачан:  0 раз
Сидов:  28  [  0 KB/s  ]   Личеров:  1  [  0 KB/s  ]  
   
 
Автор Сообщение

Lew ®

Пол: Не указан

Стаж: 5 месяцев 6 дней

Сообщений: 378

Создавать темы 13-Апр-2019 17:22

[Цитировать]

Заблудившиеся / Stray
Страна: США
Жанр: фэнтези, боевик, триллер, криминал
Год выпуска: 2019
Продолжительность: 01:27:16-Перевод: Любительский (многоголосый закадровый) | HDRezka Studio
Субтитры: нет
Оригинальная аудиодорожка: нет-Режиссер: Джо Силл / Joe Sill-В ролях: Карен Фукухара, Кристин Вудс, Мияви, Росс Патридж, Такайо Фишер, Саки Миата, Боб Бэнкрофт, Киран Деол, Соня Джексон, Суфьен Эль Халиди-Описание: Полицейский детектив Стелла Мерфи, работающая в убойном отделе, возвращается из отпуска и приступает к расследованию странного убийства женщины: ее обугленное тело было найдено на заброшенном складе, однако в окрестностях не обнаружили ни единого признака пожара. Вскоре выясняется, что жертва вела тихую жизнь вместе с дочерью-подростком Нори и пожилой матерью. Разговор с последней не приносит желаемого результата, поэтому Стелла решает объединиться с осиротевшей девушкой в попытке собрать больше информации. Ситуация осложняется, когда детектив узнает о том, что Нори обладает сверхъестественной силой.-Качество видео: WEB-DLRip
Формат видео: AVI
Видео: 704x288 (2.44:1), 23.976 fps, XviD build 73 ~2180 kbps avg, 0.45 bit/pixel
Аудио: 48 kHz, AC3 Dolby Digital, 2/0 (L,R) ch, ~192 kbps-[box]Сэмпл[/box]-

MediaInfo

Код:Формат : AVI
Формат/Информация : Audio Video Interleave
Размер файла : 1,45 Гбайт
Продолжительность : 1 ч. 27 м.
Общий поток : 2382 Кбит/сек
Программа кодирования : VirtualDubMod 1.5.10.3 | www.virtualdub-fr.org || (build 2550/release)
Библиотека кодирования : VirtualDubMod build 2550/release
Видео
Идентификатор : 0
Формат : MPEG-4 Visual
Профиль формата : Advanced Simple@L5
Настройки формата : BVOP1 / Custom Matrix
Параметр BVOP формата : 1
Параметр QPel формата : Нет
Параметр GMC формата : Без точки перехода
Параметр матрицы формата : Выборочная
Идентификатор кодека : XVID
Идентификатор кодека/Подсказка : XviD
Продолжительность : 1 ч. 27 м.
Битрейт : 2180 Кбит/сек
Ширина : 704 пикселя
Высота : 288 пикселей
Соотношение сторон : 2,40:1
Частота кадров : 23,976 (24000/1001) кадра/сек
Цветовое пространство : YUV
Субдискретизация насыщенности : 4:2:0
Битовая глубина : 8 бит
Тип развёртки : Прогрессивная
Метод сжатия : С потерями
Бит/(Пиксели*Кадры) : 0.448
Размер потока : 1,33 Гбайт (92%)
Библиотека кодирования : XviD 73
Аудио
Идентификатор : 1
Формат : AC-3
Формат/Информация : Audio Coding 3
Коммерческое название : Dolby Digital
Идентификатор кодека : 2000
Продолжительность : 1 ч. 27 м.
Вид битрейта : Постоянный
Битрейт : 192 Кбит/сек
Каналы : 2 канала
Channel layout : L R
Частота : 48,0 КГц
Частота кадров : 31,250 кадров/сек (1536 SPF)
Битовая глубина : 16 бит
Метод сжатия : С потерями
Размер потока : 120 Мбайт (8%)
Выравнивание : Разделение по промежуткам
Продолжительность промежутка : 42 мс. (1,00 видеокадр)
Время предзагрузки промежутка : 500 мс.
ServiceKind/String : Complete Main

Скриншоты


[cybertorrent.ru].t2000.torrent 
Торрент: Зарегистрирован [ 2019-04-13 17:23 ] · 58C8BCC4885E31534B97F75A2B294573F7E8C7F4

Скачать .torrent

Скачать

15 KB

Статус: проверено
Скачан: 0 раз
Размер: 1,45 GB
terms.php
[Профиль] [ЛС]
Показать сообщения:    
Ответить на тему

Текущее время: 18-Авг 14:53

Часовой пояс: UTC ± 0



Вы не можете начинать темы
Вы не можете отвечать на сообщения
Вы не можете редактировать свои сообщения
Вы не можете удалять свои сообщения
Вы не можете голосовать в опросах
Вы не можете прикреплять файлы к сообщениям
Вы можете скачивать файлы