Закатать в асфальт / Dragged Across Concrete (С. Крэйг Залер / S. Craig Zahler) [2018, Канада, США, боевик, триллер, драма, криминал, WEB-DLRip] MVO (HDRezka Studio) + Sub (Rus, Eng) + Original Eng

Ответить на тему
Статистика раздачи
Размер:  2,18 GB   |    Зарегистрирован:  4 месяца 5 дней   |    Скачан:  0 раз

Полного источника не было: Никогда

   
 
Автор Сообщение

солнышко ®

Пол: Не указан

Стаж: 5 месяцев 6 дней

Сообщений: 529

Создавать темы 13-Апр-2019 17:22

[Цитировать]

Закатать в асфальт / Dragged Across Concrete
Страна: Канада, США
Жанр: боевик, триллер, драма, криминал
Год выпуска: 2018
Продолжительность: 02:38:30-Перевод: Любительский (многоголосый закадровый) | HDRezka Studio
Субтитры: русские, английские
Оригинальная аудиодорожка: английский-Режиссер: С. Крэйг Залер / S. Craig Zahler-В ролях: Мэл Гибсон, Винс Вон, Дженнифер Карпентер, Майкл Джей Уайт, Лори Холден, Дон Джонсон, Томас Кречманн, Удо Кир, Тори Киттлз, Лианнет Боррего, Джастин Уоррингтон-Описание: Старого ищейку Риджмана и безбашенного Энтони отстраняют от дел после того, как в сеть попадает видео, где напарники жестко выбивают признание из подозреваемого. Не имея других средств к существованию, экс-копы находят работу в криминальном подполье.- -Качество видео: WEB-DLRip
Формат видео: AVI
Видео: 720x304 (2.37:1), 23.976 fps, XviD build 50 ~1386 kbps avg, 0.26 bit/pixel
Аудио 1: 48 kHz, AC3 Dolby Digital, 2/0 (L,R) ch, ~192 kbps | rus
Аудио 2: 48 kHz, AC3 Dolby Digital, 3/2 (L,C,R,l,r) + LFE ch, ~384 kbps | eng-[box]Сэмпл[/box]-

MediaInfo

Код:Формат : AVI
Формат/Информация : Audio Video Interleave
Профиль формата : OpenDML
Размер файла : 2,18 Гбайт
Продолжительность : 2 ч. 38 м.
Общий поток : 1970 Кбит/сек
Программа кодирования : VirtualDubMod 1.5.10.3 | www.virtualdub-fr.org || (build 2550/release)
Библиотека кодирования : VirtualDubMod build 2550/release
Видео
Идентификатор : 0
Формат : MPEG-4 Visual
Профиль формата : Advanced Simple@L5
Настройки формата : BVOP1 / Custom Matrix
Параметр BVOP формата : 1
Параметр QPel формата : Нет
Параметр GMC формата : Без точки перехода
Параметр матрицы формата : Выборочная
Идентификатор кодека : XVID
Идентификатор кодека/Подсказка : XviD
Продолжительность : 2 ч. 38 м.
Битрейт : 1376 Кбит/сек
Ширина : 720 пикселей
Высота : 304 пикселя
Соотношение сторон : 2,35:1
Частота кадров : 23,976 (24000/1001) кадра/сек
Цветовое пространство : YUV
Субдискретизация насыщенности : 4:2:0
Битовая глубина : 8 бит
Тип развёртки : Прогрессивная
Метод сжатия : С потерями
Бит/(Пиксели*Кадры) : 0.262
Размер потока : 1,52 Гбайт (70%)
Библиотека кодирования : XviD 1.2.1 (UTC 2008-12-04)
Аудио #1
Идентификатор : 1
Формат : AC-3
Формат/Информация : Audio Coding 3
Коммерческое название : Dolby Digital
Идентификатор кодека : 2000
Продолжительность : 2 ч. 38 м.
Вид битрейта : Постоянный
Битрейт : 192 Кбит/сек
Каналы : 2 канала
Channel layout : L R
Частота : 48,0 КГц
Частота кадров : 31,250 кадров/сек (1536 SPF)
Битовая глубина : 16 бит
Метод сжатия : С потерями
Размер потока : 218 Мбайт (10%)
Выравнивание : Разделение по промежуткам
Продолжительность промежутка : 42 мс. (1,00 видеокадр)
Время предзагрузки промежутка : 500 мс.
Заголовок : Russian
ServiceKind/String : Complete Main
Аудио #2
Идентификатор : 2
Формат : AC-3
Формат/Информация : Audio Coding 3
Коммерческое название : Dolby Digital
Идентификатор кодека : 2000
Продолжительность : 2 ч. 38 м.
Вид битрейта : Постоянный
Битрейт : 384 Кбит/сек
Каналы : 6 каналов
Channel layout : L R C LFE Ls Rs
Частота : 48,0 КГц
Частота кадров : 31,250 кадров/сек (1536 SPF)
Битовая глубина : 16 бит
Метод сжатия : С потерями
Размер потока : 435 Мбайт (19%)
Выравнивание : Разделение по промежуткам
Продолжительность промежутка : 42 мс. (1,00 видеокадр)
Время предзагрузки промежутка : 500 мс.
Заголовок : English
ServiceKind/String : Complete Main

Скриншоты


При появлении проф. озвучки, перезалью.
[cybertorrent.ru].t2007.torrent 
Торрент: Зарегистрирован [ 2019-04-13 17:23 ] · 5682A0DE87A36A822AD6AF10C06D3D5C8B4FE524

Скачать .torrent

Скачать

12 KB

Статус: проверено
Скачан: 0 раз
Размер: 2,18 GB
terms.php
[Профиль] [ЛС]
Показать сообщения:    
Ответить на тему

Текущее время: 19-Авг 05:53

Часовой пояс: UTC ± 0



Вы не можете начинать темы
Вы не можете отвечать на сообщения
Вы не можете редактировать свои сообщения
Вы не можете удалять свои сообщения
Вы не можете голосовать в опросах
Вы не можете прикреплять файлы к сообщениям
Вы можете скачивать файлы