Идеальное свидание / The Perfect Date (Кристофер Нельсон / Christopher Nelson) [2019, США, мелодрама, комедия, WEB-DLRip] Dub (Netflix)

Ответить на тему
Статистика раздачи
Размер:  1,46 GB   |    Зарегистрирован:  8 дней   |    Скачан:  0 раз

Полного источника не было: Никогда

   
 
Автор Сообщение

Lew ®

Пол: Не указан

Стаж: 1 месяц 9 дней

Сообщений: 83

Создавать темы 13-Апр-2019 17:22

[Цитировать]

Идеальное свидание / The Perfect Date
Страна: США
Жанр: мелодрама, комедия
Год выпуска: 2019
Продолжительность: 01:30:40-Перевод: Профессиональный (дублированный) | Netflix
Субтитры: нет
Оригинальная аудиодорожка: нет-Режиссер: Кристофер Нельсон / Christopher Nelson-В ролях: Лора Марано, Ной Сентинео, Камила Мендес, Джо Крест, Сью-Линн Ансари, Мэтт Уолш, Кэрри Лазар, Ивэн Кастелло-Описание: Брукс работает в местном кафе, учится в колледже и мечтает изменить свою жизнь. Но к сожалению, он понятия не имеет как это сделать, да и в принципе не знает, чего хочет от этой жизни. Однажды он решает создать мобильное приложение, благодаря которому любая девушка сможет «арендовать» его в качестве бойфренда. По мере того, как он встречается с разными девушками, он начинает понимать чего же он на самом деле хочет от этой жизни.- -Качество видео: WEB-DLRip
Формат видео: AVI
Видео: 720x304 (2.37:1), 23.976 fps, XviD build 73 ~1905 kbps avg, 0.36 bit/pixel
Аудио: 48 kHz, AC3 Dolby Digital, 3/2 (L,C,R,l,r) + LFE ch, ~384 kbps-[box]Сэмпл[/box]-

MediaInfo

Код:Формат : AVI
Формат/Информация : Audio Video Interleave
Размер файла : 1,46 Гбайт
Продолжительность : 1 ч. 30 м.
Общий поток : 2299 Кбит/сек
Название фильма : Идеальное свидание_2019_WEB-DLRip
Программа кодирования : VirtualDubMod 1.5.10.3 | www.virtualdub-fr.org || (build 2550/release) VirtualDubMod build 2550/release
Авторское право : порошков
Видео
Идентификатор : 0
Формат : MPEG-4 Visual
Профиль формата : Advanced Simple@L5
Настройки формата : BVOP1 / Custom Matrix
Параметр BVOP формата : 1
Параметр QPel формата : Нет
Параметр GMC формата : Без точки перехода
Параметр матрицы формата : Выборочная
Идентификатор кодека : XVID
Идентификатор кодека/Подсказка : XviD
Продолжительность : 1 ч. 30 м.
Битрейт : 1906 Кбит/сек
Ширина : 720 пикселей
Высота : 304 пикселя
Соотношение сторон : 2,35:1
Частота кадров : 23,976 (24000/1001) кадра/сек
Цветовое пространство : YUV
Субдискретизация насыщенности : 4:2:0
Битовая глубина : 8 бит
Тип развёртки : Прогрессивная
Метод сжатия : С потерями
Бит/(Пиксели*Кадры) : 0.363
Размер потока : 1,21 Гбайт (83%)
Библиотека кодирования : XviD 73
Аудио
Идентификатор : 1
Формат : AC-3
Формат/Информация : Audio Coding 3
Коммерческое название : Dolby Digital
Идентификатор кодека : 2000
Продолжительность : 1 ч. 30 м.
Вид битрейта : Постоянный
Битрейт : 384 Кбит/сек
Каналы : 6 каналов
Channel layout : L R C LFE Ls Rs
Частота : 48,0 КГц
Частота кадров : 31,250 кадров/сек (1536 SPF)
Битовая глубина : 16 бит
Метод сжатия : С потерями
Размер потока : 249 Мбайт (17%)
Выравнивание : Разделение по промежуткам
Продолжительность промежутка : 42 мс. (1,00 видеокадр)
Время предзагрузки промежутка : 500 мс.
Язык : Русский
ServiceKind/String : Complete Main

Скриншоты


Если ваш рейтинг упадет ниже 0,3, вы не сможете скачивать торренты! Подробнее о рейтинге.

[cybertorrent.ru].t2017.torrent 
Торрент: Зарегистрирован [ 2019-04-13 17:23 ] · 429399EB620427441ED365F72EDFF73297DCA6FF

Скачать .torrent

Скачать

15 KB

Статус: проверено
Скачан: 0 раз
Размер: 1,46 GB
terms.php
[Профиль] [ЛС]
Показать сообщения:    
Ответить на тему

Текущее время: 22-Апр 02:27

Часовой пояс: UTC ± 0



Вы не можете начинать темы
Вы не можете отвечать на сообщения
Вы не можете редактировать свои сообщения
Вы не можете удалять свои сообщения
Вы не можете голосовать в опросах
Вы не можете прикреплять файлы к сообщениям
Вы можете скачивать файлы