Офисный беспредел / Office Uprising (Лин Одинг / Lin Oeding) [2018, США, ужасы, боевик, комедия, BDRip] Dub (iTunes)

Ответить на тему
Статистика раздачи
Размер:  746 MB   |    Зарегистрирован:  5 месяцев 4 дня   |    Скачан:  0 раз

Полного источника не было: Никогда

   
 
Автор Сообщение

солнышко ®

Пол: Не указан

Стаж: 6 месяцев 5 дней

Сообщений: 565

Создавать темы 13-Апр-2019 17:22

[Цитировать]

Офисный беспредел / Office Uprising
«Worst. Workday. Ever»
- Страна: США
Студия: Lydiard Films, Mind the GAP Productions, Rumble Riot Pictures
Жанр: ужасы, боевик, комедия
Год выпуска: 2018
Продолжительность: 01:28:31
Перевод: Профессиональный (дублированный) (iTunes)
Субтитры: нет
Оригинальная аудиодорожка: нет
Режиссер: Лин Одинг / Lin Oeding
В ролях: Брентон Туэйтс, Джейн Леви, Каран Сони, Закари Ливай, Грегг Генри, Курт Фуллер, Иэн Хардинг, Бэрри Шебака Хенли, Алан Ричсон, Сэм Дэйли
Описание: Глава крупной корпорации, производящей разнообразные виды оружия, на очередном корпоративном собрании напоил сотрудников находящимся в разработке энергетическим напитком. Однако партия оказалась бракованной, и подчиненные стали гиперагрессивными. Без порции энергетика остались только вечно отлынивающий от собраний бухгалтер Десмонд и пара его сослуживцев. Теперь им предстоит пережить настоящий офисный беспредел.

Тип релиза: BDRip [Neon_project] (Office.Uprising.2018.COMPLETE.BLURAY-iTWASNTME)
Контейнер: AVI
Видео: 688x288 (2.39:1), 24.000 fps, XviD build 50 ~1041 kbps avg, 0.22 bit/pixel
Аудио: 48 kHz, MPEG Layer 3, 2 ch, ~128.00 kbps avg

возраст: зрителям, достигшим 18 лет

MediaInfo

Общее
Полное имя : \Office.Uprising.2018.BDRip.avi
Формат : AVI
Формат/Информация : Audio Video Interleave
Размер файла : 746 Мбайт
Продолжительность : 1 ч. 28 м.
Общий поток : 1179 Кбит/сек
Название фильма : Офисный беспредел / Office Uprising
Режиссёр : Лин Одинг / Lin Oeding
Жанр : ужасы, боевик, комедия
Программа кодирования : VirtualDubMod 1.5.10.2 (build 2540/release)
Формат оригинала/Имя : фильм
Примечание : Neon_project
Видео
Идентификатор : 0
Формат : MPEG-4 Visual
Профиль формата : Advanced Simple@L5
Настройки формата : BVOP1 / Custom Matrix
Параметр BVOP формата : 1
Параметр QPel формата : Нет
Параметр GMC формата : Без точки перехода
Параметр матрицы формата : Выборочная
Идентификатор кодека : XVID
Идентификатор кодека/Подсказка : XviD
Продолжительность : 1 ч. 28 м.
Битрейт : 1042 Кбит/сек
Ширина : 688 пикселей
Высота : 288 пикселей
Соотношение сторон : 2,40:1
Частота кадров : 24,000 кадра/сек
Цветовое пространство : YUV
Субдискретизация насыщенности : 4:2:0
Битовая глубина : 8 бит
Тип развёртки : Прогрессивная
Метод сжатия : С потерями
Бит/(Пиксели*Кадры) : 0.219
Размер потока : 659 Мбайт (88%)
Библиотека кодирования : XviD 1.2.1 (UTC 2008-12-04)
Аудио
Идентификатор : 1
Формат : MPEG Audio
Версия формата : Version 1
Профиль формата : Layer 3
Настройки формата : Joint stereo / MS Stereo
Идентификатор кодека : 55
Идентификатор кодека/Подсказка : MP3
Продолжительность : 1 ч. 28 м.
Вид битрейта : Постоянный
Битрейт : 128 Кбит/сек
Каналы : 2 канала
Частота : 48,0 КГц
Частота кадров : 41,667 кадра/сек (1152 SPF)
Метод сжатия : С потерями
Размер потока : 81,0 Мбайт (11%)
Выравнивание : Соединение по промежуткам
Продолжительность промежутка : 42 мс. (1,00 видеокадр)
Время предзагрузки промежутка : 504 мс.
Библиотека кодирования : LAME3.99r
Настройки программы : -m j -V 4 -q 0 -lowpass 17 -b 128

Скриншот c названием фильма

Скриншоты


[cybertorrent.ru].t2018.torrent 
Торрент: Зарегистрирован [ 2019-04-13 17:23 ] · 5D6F6E08E3A3D205872DBC097C5BDEDF738D8F18

Скачать .torrent

Скачать

15 KB

Статус: проверено
Скачан: 0 раз
Размер: 746 MB
terms.php
[Профиль] [ЛС]
Показать сообщения:    
Ответить на тему

Текущее время: 18-Сен 09:01

Часовой пояс: UTC ± 0



Вы не можете начинать темы
Вы не можете отвечать на сообщения
Вы не можете редактировать свои сообщения
Вы не можете удалять свои сообщения
Вы не можете голосовать в опросах
Вы не можете прикреплять файлы к сообщениям
Вы можете скачивать файлы

Партнеры

Выражаем благодарность всем людям, внесшим вклад в наш сайт в далёком прошлом. Мы помним Вас, гордимся Вами и ждём Вас обратно!

Интересное в сети