Рожденная революцией (Григорий Кохан) [1974-1977, детектив, DVB]

Ответить на тему
Статистика раздачи
Размер:  17,2 GB   |    Зарегистрирован:  11 дней   |    Скачан:  0 раз

Полного источника не было: Никогда

   
 
Автор Сообщение

edich ®

Пол: Не указан

Стаж: 1 месяц 13 дней

Сообщений: 75

Создавать темы 14-Апр-2019 15:48

[Цитировать]

Рожденная революцией (10 серий)
07/04/19 в связи с повторной трансляцией заменены записи 2-10 серии (1-ю пропустил). Наполнение кадра больше сверху-снизу (смотрим сравнение), финальные титры и песня в наличии. На видео 2-й серии местами баннер 12+. Смотрим 1-й скрин. В связи с частыми повторами по "Ретро" желающие получить 1-ю серию в таком же качестве и 2-ю без баннеров приглашаются мониторить телепрограмму.
Жанр: детектив
Год выпуска: 1974-1977
Продолжительность: 01:03:42 + 01:16:41 + 01:17:58 + 01:28:52 + 01:27:34 + 01:29:39 + 01:18:37 + 01:35:37 + 01:23:39 + 01:25:52
Режиссёр: Григорий Кохан
В ролях: Евгений Жариков, Наталья Гвоздикова, Виктор Шульгин, Вадим Медведев, Улдис Пуцитис, Станислав Бородокин, Георгий Дворников, Сергей Подгорный, Сергей Иванов, Лев Прыгунов, Виталий Розстальный, Аркадий Гашинский, Александр Январёв, Юрий Шерстнёв, Стелла Новбари, Владимир Дюков-Самарский, Александр Захаров (III), Сергей Полежаев, Юрий Дедович, Валентина Ковель, Нина Ильина, Галина Тарасова, Дмитрий Миргородский, Владимир Антонов, Виолетта Жухимович, Саша Смычков, Евгения Ветлова, Иван Дмитриев, Владимир Талашко, Иван Матвеев, Николай Сектименко, Сергей Массарский, Юрий Эллер, Константин Артеменко, Игорь Дыченко, Валерий Ольшанский, Иосиф Конопацкий, Александр Ануров, Георгий Тейх, Людмила Сосюра, Владимир Бабиенко, Ольга Матешко, Александр Быструшкин, Раиса Недашковская, Александр Эстрин, Эрнст Романов, Александр Хочинский, Юрий Сербин, Владислав Долгоруков, Анатолий Переверзев, Михаил Чигарёв, Виктор Стовба, Лесь Сердюк, Евгений Леонов-Гладышев, Елена Бромлей, Нина Реус, Александр Филиппенко, Борис Голдаев, Олег Голубицкий, Виктор Черняков, Виктор Зубарев, Юрий Мажуга, Маргарита Криницына, Борис Борисов, Александр Заднепровский, Виталий Дорошенко, Валерий Беляков, Ирина Терещенко, Мария Андрианова, Александр Белявский
Описание: Сериал рассказывает о первых днях и последующей деятельности советских правоохранительных органов от лица главного героя — сотрудника петроградской милиции Николая Кондратьева в период с 1917 по 1970-е годы.
Доп. информация: Запись потока *.ts со спутника ABS-1, ремукс в *.mkv программой VideoReDo.
Качество видео: DVB
Формат видео: MKV
Видеои: MPEG2 Video, 720(768)x576 (4:3), 25,000 кадров/сек, 2805 Кбит/сек
Аудио: MPEG Audio, 48,0 КГц, 128 Кбит/сек, 2 канала

MediaInfo

General
Unique ID : 261163680784696857736365367203087704812 (0xC47A4B9A2798EE1F19DA04ECCDBEE2EC)
Complete name : U:\РОЖДЁННАЯ РЕВОЛЮЦИЕЙ\РОЖДЁННАЯ РЕВОЛЮЦИЕЙ 01 (RETRO).mkv
Format : Matroska
Format version : Version 2
File size : 1.33 GiB
Duration : 1 h 3 min
Overall bit rate mode : Variable
Overall bit rate : 2 992 kb/s
Writing application : Lavf54.63.104
Writing library : Lavf54.63.104
Video
ID : 1
Format : MPEG Video
Format version : Version 2
Format profile : Main@Main
Format settings : CustomMatrix / BVOP
Format settings, BVOP : Yes
Format settings, Matrix : Custom
Format settings, GOP : M=3, N=15
Format settings, picture st : Frame
Codec ID : V_MPEG2
Codec ID/Info : MPEG 1 or 2 Video
Duration : 1 h 3 min
Bit rate mode : Variable
Bit rate : 2 805 kb/s
Maximum bit rate : 9 800 kb/s
Width : 720 pixels
Height : 576 pixels
Display aspect ratio : 4:3
Original display aspect rat : 4:3
Frame rate mode : Constant
Frame rate : 25.000 FPS
Standard : PAL
Color space : YUV
Chroma subsampling : 4:2:0
Bit depth : 8 bits
Scan type : Interlaced
Scan order : Top Field First
Compression mode : Lossy
Bits/(Pixel*Frame) : 0.271
Stream size : 1.25 GiB (94%)
Default : No
Forced : No
Audio
ID : 2
Format : MPEG Audio
Format version : Version 1
Format profile : Layer 2
Format settings : Joint stereo
Codec ID : A_MPEG/L2
Codec ID/Hint : MP2
Duration : 1 h 3 min
Bit rate mode : Constant
Bit rate : 128 kb/s
Channel(s) : 2 channels
Sampling rate : 48.0 kHz
Compression mode : Lossy
Delay relative to video : 7 ms
Stream size : 58.3 MiB (4%)
Language : Russian
Default : Yes
Forced : No
General
Unique ID : 266991539423491154708073601218346018477 (0xC8DCB3379D8F40337E3BDCBFCA5CE6AD)
Complete name : D:\Torrent\РОЖДЕННАЯ РЕВОЛЮЦИЕЙ\РОЖДЁННАЯ РЕВОЛЮЦИЕЙ 02 (RETRO).mkv
Format : Matroska
Format version : Version 2
File size : 1.60 GiB
Duration : 1 h 16 min
Overall bit rate mode : Variable
Overall bit rate : 2 993 kb/s
Writing application : Lavf54.63.104
Writing library : Lavf54.63.104
Video
ID : 1
Format : MPEG Video
Format version : Version 2
Format profile : Main@Main
Format settings : CustomMatrix / BVOP
Format settings, BVOP : Yes
Format settings, Matrix : Custom
Format settings, GOP : M=3, N=15
Format settings, picture st : Frame
Codec ID : V_MPEG2
Codec ID/Info : MPEG 1 or 2 Video
Duration : 1 h 16 min
Bit rate mode : Variable
Bit rate : 2 805 kb/s
Maximum bit rate : 9 800 kb/s
Width : 720 pixels
Height : 576 pixels
Display aspect ratio : 4:3
Original display aspect rat : 4:3
Frame rate mode : Constant
Frame rate : 25.000 FPS
Standard : PAL
Color space : YUV
Chroma subsampling : 4:2:0
Bit depth : 8 bits
Scan type : Interlaced
Scan order : Top Field First
Compression mode : Lossy
Bits/(Pixel*Frame) : 0.271
Stream size : 1.50 GiB (94%)
Default : No
Forced : No
Audio
ID : 2
Format : MPEG Audio
Format version : Version 1
Format profile : Layer 2
Format settings : Joint stereo
Codec ID : A_MPEG/L2
Codec ID/Hint : MP2
Duration : 1 h 16 min
Bit rate mode : Constant
Bit rate : 128 kb/s
Channel(s) : 2 channels
Sampling rate : 48.0 kHz
Compression mode : Lossy
Delay relative to video : 15 ms
Stream size : 70.2 MiB (4%)
Language : Russian
Default : Yes
Forced : No
General
Unique ID : 45596764810740721156727871723607854010 (0x224D9E129EB8D8C2F2F2BB065D428BBA)
Complete name : D:\Torrent\РОЖДЕННАЯ РЕВОЛЮЦИЕЙ\РОЖДЁННАЯ РЕВОЛЮЦИЕЙ 03 (RETRO).mkv
Format : Matroska
Format version : Version 2
File size : 1.63 GiB
Duration : 1 h 17 min
Overall bit rate mode : Variable
Overall bit rate : 2 993 kb/s
Writing application : Lavf54.63.104
Writing library : Lavf54.63.104
Video
ID : 1
Format : MPEG Video
Format version : Version 2
Format profile : Main@Main
Format settings : CustomMatrix / BVOP
Format settings, BVOP : Yes
Format settings, Matrix : Custom
Format settings, GOP : M=3, N=15
Format settings, picture st : Frame
Codec ID : V_MPEG2
Codec ID/Info : MPEG 1 or 2 Video
Duration : 1 h 17 min
Bit rate mode : Variable
Bit rate : 2 805 kb/s
Maximum bit rate : 9 800 kb/s
Width : 720 pixels
Height : 576 pixels
Display aspect ratio : 4:3
Original display aspect rat : 4:3
Frame rate mode : Constant
Frame rate : 25.000 FPS
Standard : PAL
Color space : YUV
Chroma subsampling : 4:2:0
Bit depth : 8 bits
Scan type : Interlaced
Scan order : Top Field First
Compression mode : Lossy
Bits/(Pixel*Frame) : 0.271
Stream size : 1.53 GiB (94%)
Default : No
Forced : No
Audio
ID : 2
Format : MPEG Audio
Format version : Version 1
Format profile : Layer 2
Format settings : Joint stereo
Codec ID : A_MPEG/L2
Codec ID/Hint : MP2
Duration : 1 h 17 min
Bit rate mode : Constant
Bit rate : 128 kb/s
Channel(s) : 2 channels
Sampling rate : 48.0 kHz
Compression mode : Lossy
Delay relative to video : 7 ms
Stream size : 71.4 MiB (4%)
Language : Russian
Default : Yes
Forced : No
General
Unique ID : 209313102482167552195724604922426990443 (0x9D783CB7FAAE0367794D46275CEE9F6B)
Complete name : D:\Torrent\РОЖДЕННАЯ РЕВОЛЮЦИЕЙ\РОЖДЁННАЯ РЕВОЛЮЦИЕЙ 04 (RETRO).mkv
Format : Matroska
Format version : Version 2
File size : 1.86 GiB
Duration : 1 h 28 min
Overall bit rate mode : Variable
Overall bit rate : 2 993 kb/s
Writing application : Lavf54.63.104
Writing library : Lavf54.63.104
Video
ID : 1
Format : MPEG Video
Format version : Version 2
Format profile : Main@Main
Format settings : CustomMatrix / BVOP
Format settings, BVOP : Yes
Format settings, Matrix : Custom
Format settings, GOP : M=3, N=15
Format settings, picture st : Frame
Codec ID : V_MPEG2
Codec ID/Info : MPEG 1 or 2 Video
Duration : 1 h 28 min
Bit rate mode : Variable
Bit rate : 2 805 kb/s
Maximum bit rate : 9 800 kb/s
Width : 720 pixels
Height : 576 pixels
Display aspect ratio : 4:3
Original display aspect rat : 4:3
Frame rate mode : Constant
Frame rate : 25.000 FPS
Standard : PAL
Color space : YUV
Chroma subsampling : 4:2:0
Bit depth : 8 bits
Scan type : Interlaced
Scan order : Top Field First
Compression mode : Lossy
Bits/(Pixel*Frame) : 0.271
Stream size : 1.74 GiB (94%)
Default : No
Forced : No
Audio
ID : 2
Format : MPEG Audio
Format version : Version 1
Format profile : Layer 2
Format settings : Joint stereo
Codec ID : A_MPEG/L2
Codec ID/Hint : MP2
Duration : 1 h 28 min
Bit rate mode : Constant
Bit rate : 128 kb/s
Channel(s) : 2 channels
Sampling rate : 48.0 kHz
Compression mode : Lossy
Delay relative to video : 15 ms
Stream size : 81.4 MiB (4%)
Language : Russian
Default : Yes
Forced : No
General
Unique ID : 147039816467729620307044221381361063019 (0x6E9ED6AB8E655A77D1601EF248ECD46B)
Complete name : D:\Torrent\РОЖДЕННАЯ РЕВОЛЮЦИЕЙ\РОЖДЁННАЯ РЕВОЛЮЦИЕЙ 05 (RETRO).mkv
Format : Matroska
Format version : Version 2
File size : 1.83 GiB
Duration : 1 h 27 min
Overall bit rate mode : Variable
Overall bit rate : 2 993 kb/s
Writing application : Lavf54.63.104
Writing library : Lavf54.63.104
Video
ID : 1
Format : MPEG Video
Format version : Version 2
Format profile : Main@Main
Format settings : CustomMatrix / BVOP
Format settings, BVOP : Yes
Format settings, Matrix : Custom
Format settings, GOP : M=3, N=15
Format settings, picture st : Frame
Codec ID : V_MPEG2
Codec ID/Info : MPEG 1 or 2 Video
Duration : 1 h 27 min
Bit rate mode : Variable
Bit rate : 2 805 kb/s
Maximum bit rate : 9 800 kb/s
Width : 720 pixels
Height : 576 pixels
Display aspect ratio : 4:3
Original display aspect rat : 4:3
Frame rate mode : Constant
Frame rate : 25.000 FPS
Standard : PAL
Color space : YUV
Chroma subsampling : 4:2:0
Bit depth : 8 bits
Scan type : Interlaced
Scan order : Top Field First
Compression mode : Lossy
Bits/(Pixel*Frame) : 0.271
Stream size : 1.72 GiB (94%)
Default : No
Forced : No
Audio
ID : 2
Format : MPEG Audio
Format version : Version 1
Format profile : Layer 2
Format settings : Joint stereo
Codec ID : A_MPEG/L2
Codec ID/Hint : MP2
Duration : 1 h 27 min
Bit rate mode : Constant
Bit rate : 128 kb/s
Channel(s) : 2 channels
Sampling rate : 48.0 kHz
Compression mode : Lossy
Delay relative to video : 23 ms
Stream size : 80.2 MiB (4%)
Language : Russian
Default : Yes
Forced : No
General
Unique ID : 307572492684516307706188835420112923318 (0xE7644EB000C7D2A4138E3AFD687FAAB6)
Complete name : D:\Torrent\РОЖДЕННАЯ РЕВОЛЮЦИЕЙ\РОЖДЁННАЯ РЕВОЛЮЦИЕЙ 06 (RETRO).mkv
Format : Matroska
Format version : Version 2
File size : 1.87 GiB
Duration : 1 h 29 min
Overall bit rate mode : Variable
Overall bit rate : 2 993 kb/s
Writing application : Lavf54.63.104
Writing library : Lavf54.63.104
Video
ID : 1
Format : MPEG Video
Format version : Version 2
Format profile : Main@Main
Format settings : CustomMatrix / BVOP
Format settings, BVOP : Yes
Format settings, Matrix : Custom
Format settings, GOP : M=3, N=15
Format settings, picture st : Frame
Codec ID : V_MPEG2
Codec ID/Info : MPEG 1 or 2 Video
Duration : 1 h 29 min
Bit rate mode : Variable
Bit rate : 2 805 kb/s
Maximum bit rate : 9 800 kb/s
Width : 720 pixels
Height : 576 pixels
Display aspect ratio : 4:3
Original display aspect rat : 4:3
Frame rate mode : Constant
Frame rate : 25.000 FPS
Standard : PAL
Color space : YUV
Chroma subsampling : 4:2:0
Bit depth : 8 bits
Scan type : Interlaced
Scan order : Top Field First
Compression mode : Lossy
Bits/(Pixel*Frame) : 0.271
Stream size : 1.76 GiB (94%)
Default : No
Forced : No
Audio
ID : 2
Format : MPEG Audio
Format version : Version 1
Format profile : Layer 2
Format settings : Joint stereo
Codec ID : A_MPEG/L2
Codec ID/Hint : MP2
Duration : 1 h 29 min
Bit rate mode : Constant
Bit rate : 128 kb/s
Channel(s) : 2 channels
Sampling rate : 48.0 kHz
Compression mode : Lossy
Delay relative to video : 23 ms
Stream size : 82.1 MiB (4%)
Language : Russian
Default : Yes
Forced : No
General
Unique ID : 65828293527664987540891465802764275389 (0x318611738ACE6E728CF7268180FC4EBD)
Complete name : D:\Torrent\РОЖДЕННАЯ РЕВОЛЮЦИЕЙ\РОЖДЁННАЯ РЕВОЛЮЦИЕЙ 07 (RETRO).mkv
Format : Matroska
Format version : Version 2
File size : 1.64 GiB
Duration : 1 h 18 min
Overall bit rate mode : Variable
Overall bit rate : 2 993 kb/s
Writing application : Lavf54.63.104
Writing library : Lavf54.63.104
Video
ID : 1
Format : MPEG Video
Format version : Version 2
Format profile : Main@Main
Format settings : CustomMatrix / BVOP
Format settings, BVOP : Yes
Format settings, Matrix : Custom
Format settings, GOP : M=3, N=15
Format settings, picture st : Frame
Codec ID : V_MPEG2
Codec ID/Info : MPEG 1 or 2 Video
Duration : 1 h 18 min
Bit rate mode : Variable
Bit rate : 2 805 kb/s
Maximum bit rate : 9 800 kb/s
Width : 720 pixels
Height : 576 pixels
Display aspect ratio : 4:3
Original display aspect rat : 4:3
Frame rate mode : Constant
Frame rate : 25.000 FPS
Standard : PAL
Color space : YUV
Chroma subsampling : 4:2:0
Bit depth : 8 bits
Scan type : Interlaced
Scan order : Top Field First
Compression mode : Lossy
Bits/(Pixel*Frame) : 0.271
Stream size : 1.54 GiB (94%)
Default : No
Forced : No
Audio
ID : 2
Format : MPEG Audio
Format version : Version 1
Format profile : Layer 2
Format settings : Joint stereo
Codec ID : A_MPEG/L2
Codec ID/Hint : MP2
Duration : 1 h 18 min
Bit rate mode : Constant
Bit rate : 128 kb/s
Channel(s) : 2 channels
Sampling rate : 48.0 kHz
Compression mode : Lossy
Delay relative to video : 15 ms
Stream size : 72.0 MiB (4%)
Language : Russian
Default : Yes
Forced : No
General
Unique ID : 177494171953769454994222239143562371265 (0x858822528ADF71554D29AB2CA240E0C1)
Complete name : D:\Torrent\РОЖДЕННАЯ РЕВОЛЮЦИЕЙ\РОЖДЁННАЯ РЕВОЛЮЦИЕЙ 08 (RETRO).mkv
Format : Matroska
Format version : Version 2
File size : 1.94 GiB
Duration : 1 h 35 min
Overall bit rate mode : Variable
Overall bit rate : 2 905 kb/s
Writing application : Lavf54.63.104
Writing library : Lavf54.63.104
Video
ID : 1
Format : MPEG Video
Format version : Version 2
Format profile : Main@Main
Format settings : CustomMatrix / BVOP
Format settings, BVOP : Yes
Format settings, Matrix : Custom
Format settings, GOP : M=3, N=15
Format settings, picture st : Frame
Codec ID : V_MPEG2
Codec ID/Info : MPEG 1 or 2 Video
Duration : 1 h 35 min
Bit rate mode : Variable
Bit rate : 2 720 kb/s
Maximum bit rate : 9 800 kb/s
Width : 720 pixels
Height : 576 pixels
Display aspect ratio : 4:3
Original display aspect rat : 4:3
Frame rate mode : Constant
Frame rate : 25.000 FPS
Standard : PAL
Color space : YUV
Chroma subsampling : 4:2:0
Bit depth : 8 bits
Scan type : Interlaced
Scan order : Top Field First
Compression mode : Lossy
Bits/(Pixel*Frame) : 0.262
Stream size : 1.82 GiB (94%)
Default : No
Forced : No
Audio
ID : 2
Format : MPEG Audio
Format version : Version 1
Format profile : Layer 2
Format settings : Joint stereo
Codec ID : A_MPEG/L2
Codec ID/Hint : MP2
Duration : 1 h 35 min
Bit rate mode : Constant
Bit rate : 128 kb/s
Channel(s) : 2 channels
Sampling rate : 48.0 kHz
Compression mode : Lossy
Delay relative to video : 7 ms
Stream size : 87.6 MiB (4%)
Language : English
Default : Yes
Forced : No
General
Unique ID : 50653037476189060232409007585046224584 (0x261B6B8FEE3988A7DCD3CC97A63EDEC8)
Complete name : D:\Torrent\РОЖДЕННАЯ РЕВОЛЮЦИЕЙ\РОЖДЁННАЯ РЕВОЛЮЦИЕЙ 09 (RETRO).mkv
Format : Matroska
Format version : Version 2
File size : 1.75 GiB
Duration : 1 h 23 min
Overall bit rate mode : Variable
Overall bit rate : 2 993 kb/s
Writing application : Lavf54.63.104
Writing library : Lavf54.63.104
Video
ID : 1
Format : MPEG Video
Format version : Version 2
Format profile : Main@Main
Format settings : CustomMatrix / BVOP
Format settings, BVOP : Yes
Format settings, Matrix : Custom
Format settings, GOP : M=3, N=15
Format settings, picture st : Frame
Codec ID : V_MPEG2
Codec ID/Info : MPEG 1 or 2 Video
Duration : 1 h 23 min
Bit rate mode : Variable
Bit rate : 2 805 kb/s
Maximum bit rate : 9 800 kb/s
Width : 720 pixels
Height : 576 pixels
Display aspect ratio : 4:3
Original display aspect rat : 4:3
Frame rate mode : Constant
Frame rate : 25.000 FPS
Standard : PAL
Color space : YUV
Chroma subsampling : 4:2:0
Bit depth : 8 bits
Scan type : Interlaced
Scan order : Top Field First
Compression mode : Lossy
Bits/(Pixel*Frame) : 0.271
Stream size : 1.64 GiB (94%)
Default : No
Forced : No
Audio
ID : 2
Format : MPEG Audio
Format version : Version 1
Format profile : Layer 2
Format settings : Joint stereo
Codec ID : A_MPEG/L2
Codec ID/Hint : MP2
Duration : 1 h 23 min
Bit rate mode : Constant
Bit rate : 128 kb/s
Channel(s) : 2 channels
Sampling rate : 48.0 kHz
Compression mode : Lossy
Delay relative to video : 7 ms
Stream size : 76.6 MiB (4%)
Language : Russian
Default : Yes
Forced : No
General
Unique ID : 198818380179152750328196157682488790534 (0x959306F5CDA04EE43CF47FF8F9954E06)
Complete name : D:\Torrent\РОЖДЕННАЯ РЕВОЛЮЦИЕЙ\РОЖДЁННАЯ РЕВОЛЮЦИЕЙ 10 (RETRO).mkv
Format : Matroska
Format version : Version 2
File size : 1.80 GiB
Duration : 1 h 25 min
Overall bit rate mode : Variable
Overall bit rate : 2 993 kb/s
Writing application : Lavf54.63.104
Writing library : Lavf54.63.104
Video
ID : 1
Format : MPEG Video
Format version : Version 2
Format profile : Main@Main
Format settings : CustomMatrix / BVOP
Format settings, BVOP : Yes
Format settings, Matrix : Custom
Format settings, GOP : M=3, N=15
Format settings, picture st : Frame
Codec ID : V_MPEG2
Codec ID/Info : MPEG 1 or 2 Video
Duration : 1 h 25 min
Bit rate mode : Variable
Bit rate : 2 805 kb/s
Maximum bit rate : 9 800 kb/s
Width : 720 pixels
Height : 576 pixels
Display aspect ratio : 4:3
Original display aspect rat : 4:3
Frame rate mode : Constant
Frame rate : 25.000 FPS
Standard : PAL
Color space : YUV
Chroma subsampling : 4:2:0
Bit depth : 8 bits
Scan type : Interlaced
Scan order : Top Field First
Compression mode : Lossy
Bits/(Pixel*Frame) : 0.271
Stream size : 1.68 GiB (94%)
Default : No
Forced : No
Audio
ID : 2
Format : MPEG Audio
Format version : Version 1
Format profile : Layer 2
Format settings : Joint stereo
Codec ID : A_MPEG/L2
Codec ID/Hint : MP2
Duration : 1 h 25 min
Bit rate mode : Constant
Bit rate : 128 kb/s
Channel(s) : 2 channels
Sampling rate : 48.0 kHz
Compression mode : Lossy
Delay relative to video : 23 ms
Stream size : 78.6 MiB (4%)
Language : Russian
Default : Yes
Forced : No

Если ваш рейтинг упадет ниже 0,3, вы не сможете скачивать торренты! Подробнее о рейтинге.

[cybertorrent.ru].t2024.torrent 
Торрент: Зарегистрирован [ 2019-04-14 15:48 ] · 2D4531204741B9BB4CE37100359C85AA305BC9BC

Скачать .torrent

Скачать

87 KB

Статус: проверено
Скачан: 0 раз
Размер: 17,2 GB
terms.php
[Профиль] [ЛС]
Показать сообщения:    
Ответить на тему

Текущее время: 25-Апр 20:48

Часовой пояс: UTC ± 0



Вы не можете начинать темы
Вы не можете отвечать на сообщения
Вы не можете редактировать свои сообщения
Вы не можете удалять свои сообщения
Вы не можете голосовать в опросах
Вы не можете прикреплять файлы к сообщениям
Вы можете скачивать файлы