Патриотическая комедия (Владимир Хотиненко) [1992, фэнтези, DVDRip-AVC]

Ответить на тему
Статистика раздачи
Размер:  1,41 GB   |    Зарегистрирован:  5 месяцев   |    Скачан:  0 раз

Полного источника не было: Никогда

   
 
Автор Сообщение

Rodin ®

Пол: Не указан

Стаж: 6 месяцев 2 дня

Сообщений: 262

Создавать темы 14-Апр-2019 15:48

[Цитировать]

Патриотическая комедия
Жанр: фэнтези
Год выпуска: 1992
Продолжительность: 01:43:06-Режиссёр: Владимир Хотиненко
В ролях: Алексей Серебряков, Сергей Маковецкий, Леонид Окунёв, Лариса Гузеева, Сергей Виноградов, Елена Шамраева, Любовь Демчук, Виталий Царегородцев, Владимир Пискунов, Вячеслав Воскресенский, Тамара Зимина, Андрей Дымшаков, Григорий Лифанов, Валерий Лысенков, Никита Третьяков, Сергей Рыкусов-Описание: Фильм о том, как рядом с обыкновенной, порой однообразной жизнью в тесном соседстве находится иная реальность, волшебная, чарующая, яркая, и о том, как порой сложно открыть для себя эту новую, непривычную жизнь, даже, если она протекает за стенкой шкафа. Главный герой Ильин – русский интеллигент, столь излюбленный Чеховым персонаж, – живет в довольно-таки ветхом домике, но зато в самом центре большого города. Ильин ведет тихую и ничем не примечательную жизнь и не замечает, что совсем рядом иная фантастическая действительность. Буквально за дверцей шкафа находится вход в таинственное подземелье и волшебную комнату, из которой герой может в мгновение ока перенестись в любую столицу мира. Ограниченный прежде мир Ильина разрастается до небывалых размеров. К тому же на чердаке живет добрый домовой Пиня, который знает все тайны дома-Доп. информация: Звук с телеканала ОТР
Качество лучше чем на DVD
Синхронизирован без перекодирования
Семплы для сравнения:
ОТР
DVD
Сэмпл: 2минуты2сек-Качество видео: DVDRip-AVC (спасибо svarga)
Формат видео: MKV
Видео: AVC, 700х570@759х570, 4:3, 25,000 кадров/сек, 1759 Кбит/сек
Аудио: MP2, 48,0 КГц, 192 Кбит/сек, 2 канала

MediaInfo

x264.log

x264.exe: --crf 20.5 --preset veryslow --profile high --level 4.1 --ref 12 --aq-mode 3 --merange 42 --bframes 12 --no-fast-pskip --no-dct-decimate --subme 11 --sar 963:887 --output
avs [info]: 700x570p 963:887 @ 25/1 fps (cfr)
x264 [info]: using SAR=963/887
x264 [info]: using cpu capabilities: MMX2 SSE2Fast SSSE3 SSE4.1 Cache64
x264 [info]: profile Progressive High, level 4.1, 4:2:0, 8-bit
x264 [info]: frame I:868 Avg QP:17.99 size: 47581
x264 [info]: frame P:31452 Avg QP:20.88 size: 20296
x264 [info]: frame B:122343 Avg QP:22.96 size: 5566
x264 [info]: consecutive B-frames: 0.8% 0.5% 6.7% 21.9% 14.8% 54.9% 0.3% 0.0% 0.0% 0.0% 0.0% 0.0% 0.0%
x264 [info]: mb I I16..4: 3.0% 89.5% 7.5%
x264 [info]: mb P I16..4: 0.2% 6.9% 0.4% P16..4: 37.6% 40.6% 13.4% 0.6% 0.0% skip: 0.2%
x264 [info]: mb B I16..4: 0.0% 0.9% 0.0% B16..8: 39.4% 17.0% 2.0% direct: 6.6% skip:34.2% L0:43.0% L1:43.9% BI:13.1%
x264 [info]: 8x8 transform intra:92.1% inter:73.8%
x264 [info]: direct mvs spatial:100.0% temporal:0.0%
x264 [info]: coded y,uvDC,uvAC intra: 95.6% 73.7% 27.7% inter: 31.0% 20.4% 3.4%
x264 [info]: i16 v,h,dc,p: 32% 22% 2% 43%
x264 [info]: i8 v,h,dc,ddl,ddr,vr,hd,vl,hu: 9% 7% 5% 11% 14% 14% 13% 14% 13%
x264 [info]: i4 v,h,dc,ddl,ddr,vr,hd,vl,hu: 12% 10% 2% 8% 14% 14% 15% 11% 13%
x264 [info]: i8c dc,h,v,p: 34% 29% 21% 16%
x264 [info]: Weighted P-Frames: Y:15.6% UV:6.9%
x264 [info]: ref P L0: 34.2% 9.0% 17.6% 7.4% 7.3% 5.3% 5.4% 2.8% 3.1% 2.5% 2.8% 2.4% 0.3% 0.0%
x264 [info]: ref B L0: 84.0% 6.8% 2.6% 1.6% 1.2% 1.1% 0.9% 0.6% 0.5% 0.5% 0.3%
x264 [info]: ref B L1: 98.2% 1.8%
x264 [info]: kb/s:1759.48
encoded 154663 frames, 5.07 fps, 1759.48 kb/s
Общее
Уникальный идентификатор : 171642176434844248861551371900128415627 (0x812114AAD2ED5150F5DFD63C289D4F8B)
Полное имя : Патриотическая комедия.1992.DVDRip.mkv
Формат : Matroska
Версия формата : Version 4
Размер файла : 1,41 Гбайт
Продолжительность : 1 ч. 43 м.
Общий поток : 1953 Кбит/сек
Название фильма : Патриотическая комедия / 1992 / DVDRip
Дата кодирования : UTC 2019-04-08 07:09:46
Программа кодирования : mkvmerge v32.0.0 ('Astral Progressions') 32-bit
Библиотека кодирования : libebml v1.3.7 + libmatroska v1.5.0
Видео
Идентификатор : 1
Формат : AVC
Формат/Информация : Advanced Video Codec
Профиль формата : High@L4.1
Настройки формата : CABAC / 12 Ref Frames
Параметр CABAC формата : Да
Параметр RefFrames формата : 12 кадров
Идентификатор кодека : V_MPEG4/ISO/AVC
Продолжительность : 1 ч. 43 м.
Битрейт : 1759 Кбит/сек
Ширина : 700 пикселей
Высота : 570 пикселей
Соотношение сторон : 4:3
Соотношение сторон в оригинале : 4:3
Режим частоты кадров : Постоянный
Частота кадров : 25,000 кадров/сек
Цветовое пространство : YUV
Субдискретизация насыщенности : 4:2:0
Битовая глубина : 8 бит
Тип развёртки : Прогрессивная
Бит/(Пиксели*Кадры) : 0.176
Размер потока : 1,27 Гбайт (90%)
Заголовок : Патриотическая комедия / 1992 / DVDRip
Библиотека кодирования : x264 core 157 r2969 d4099dd
Настройки программы : cabac=1 / ref=12 / deblock=1:0:0 / analyse=0x3:0x133 / me=umh / subme=11 / psy=1 / psy_rd=1.00:0.00 / mixed_ref=1 / me_range=42 / chroma_me=1 / trellis=2 / 8x8dct=1 / cqm=0 / deadzone=21,11 / fast_pskip=0 / chroma_qp_offset=-2 / threads=6 / lookahead_threads=1 / sliced_threads=0 / nr=0 / decimate=0 / interlaced=0 / bluray_compat=0 / constrained_intra=0 / bframes=12 / b_pyramid=2 / b_adapt=2 / b_bias=0 / direct=3 / weightb=1 / open_gop=0 / weightp=2 / keyint=250 / keyint_min=25 / scenecut=40 / intra_refresh=0 / rc_lookahead=60 / rc=crf / mbtree=1 / crf=20.5 / qcomp=0.60 / qpmin=0 / qpmax=69 / qpstep=4 / ip_ratio=1.40 / aq=3:1.00
Язык : Russian
Default : Да
Forced : Нет
Аудио
Идентификатор : 2
Формат : MPEG Audio
Версия формата : Version 1
Профиль формата : Layer 2
Идентификатор кодека : A_MPEG/L2
Идентификатор кодека/Подсказка : MP2
Продолжительность : 1 ч. 43 м.
Вид битрейта : Постоянный
Битрейт : 192 Кбит/сек
Каналы : 2 канала
Частота : 48,0 КГц
Частота кадров : 41,667 кадра/сек (1152 SPF)
Метод сжатия : С потерями
Размер потока : 142 Мбайт (10%)
Заголовок : телеканал ОТР
Язык : Russian
Default : Да
Forced : Нет
Меню
00:00:00.000 : en:Chapter 01
00:11:17.200 : en:Chapter 02
00:21:12.000 : en:Chapter 03
00:34:05.640 : en:Chapter 04
00:44:26.920 : en:Chapter 05
00:55:26.680 : en:Chapter 06
01:06:42.400 : en:Chapter 07
01:19:25.760 : en:Chapter 08
01:34:42.200 : en:Chapter 09

Скриншоты



[cybertorrent.ru].t2028.torrent 
Торрент: Зарегистрирован [ 2019-04-14 15:48 ] · 20C2020EED8DB4F68C0268C318D7A5F03B3B4A82

Скачать .torrent

Скачать

15 KB

Статус: проверено
Скачан: 0 раз
Размер: 1,41 GB
terms.php
[Профиль] [ЛС]
Показать сообщения:    
Ответить на тему

Текущее время: 15-Сен 09:37

Часовой пояс: UTC ± 0



Вы не можете начинать темы
Вы не можете отвечать на сообщения
Вы не можете редактировать свои сообщения
Вы не можете удалять свои сообщения
Вы не можете голосовать в опросах
Вы не можете прикреплять файлы к сообщениям
Вы можете скачивать файлы

Партнеры

Выражаем благодарность всем людям, внесшим вклад в наш сайт в далёком прошлом. Мы помним Вас, гордимся Вами и ждём Вас обратно!

Интересное в сети