Смеяться последним / The Last Laugh (Грег Притикин / Greg Pritikin) [2019, США, комедия, WEB-DLRip] Sub (Rus, Eng) + Original Eng

Ответить на тему
Статистика раздачи
Размер:  1,46 GB   |    Зарегистрирован:  5 месяцев 30 дней   |    Скачан:  0 раз

Полного источника не было: Никогда

   
 
Автор Сообщение

Lew ®

Пол: Не указан

Стаж: 6 месяцев 5 дней

Сообщений: 415

Создавать темы 18-Мар-2019 10:01

[Цитировать]

Смеяться последним / The Last Laugh
Страна: США
Жанр: комедия
Год выпуска: 2019
Продолжительность: 01:38:38-Перевод: Субтитры
Субтитры: русские (Юлия Эво), английские
Оригинальная аудиодорожка: английский-Режиссер: Грег Притикин / Greg Pritikin-В ролях: Чеви Чейз, Кейт Микуччи, Энди МакДауэлл, Ричард Дрейфусс, Эми Брассетт, Ричи Монтгомери, Кит Уиллси, Кэрол Саттон, Ребекка Чулью-Описание: Вышедший на пенсию менеджер Эл Харт случайно натыкается на своего самого первого клиента - комика Бадди Грина, который оставил шоу-бизнес 50 лет назад. Эл видит в Бадди возможность вернуться в игру. Он уговаривает Бадди сбежать из дома престарелых и отправиться в турне.-Качество видео: WEB-DLRip
Формат видео: AVI
Видео: 720x384 (1.88:1), 23.976 fps, XviD build 73 ~1724 kbps avg, 0.26 bit/pixel
Аудио: 48 kHz, AC3 Dolby Digital, 3/2 (L,C,R,l,r) + LFE ch, ~384 kbps
Формат субтитров: softsub (SRT)-[box]Сэмпл[/box]-

Пример субтитров

Код:516
00:34:46,876 --> 00:34:49,170
Я тоже вырос в плохом районе.
517
00:34:51,881 --> 00:34:54,801
В южном районе Чикаго.
Суровый район.
518
00:34:55,218 --> 00:34:56,553
Но, как и в Тихуане,
519
00:34:56,845 --> 00:34:59,264
там чудесно расти...
520
00:34:59,889 --> 00:35:00,807
...если ты пуля.
521
00:35:03,018 --> 00:35:06,896
Непросто вам приходится
сейчас в штатах.
522
00:35:07,188 --> 00:35:10,483
Я курю марихуану,
мой дилер - мексиканец.
523
00:35:10,567 --> 00:35:13,403
На днях я позвонил ему,
он привез мне травы,
524
00:35:13,486 --> 00:35:16,531
я спросил, есть ли у него бумажки,
и он сбежал!
525
00:35:22,287 --> 00:35:23,204
Ты снова это сделал!
526
00:35:24,372 --> 00:35:26,541
В Тихуане! Кто бы мог подумать?
527
00:35:26,625 --> 00:35:28,335
Да уж. Как будто...
528
00:35:29,586 --> 00:35:30,920
Эй, американцы!
529
00:35:31,379 --> 00:35:35,467
Слушайте, куда пойти в этом городе,
чтобы развлечься?
530
00:35:38,178 --> 00:35:39,721
Нам не положен телефонный звонок?
531
00:35:49,314 --> 00:35:51,066
У нас тут больной.
532
00:35:51,941 --> 00:35:53,068
Как ты, Бадди?

MediaInfo

Код:Формат : AVI
Формат/Информация : Audio Video Interleave
Размер файла : 1,46 Гбайт
Продолжительность : 1 ч. 38 м.
Общий поток : 2118 Кбит/сек
Программа кодирования : VirtualDubMod 1.5.10.3 | www.virtualdub-fr.org || (build 2550/release)
Библиотека кодирования : VirtualDubMod build 2550/release
Видео
Идентификатор : 0
Формат : MPEG-4 Visual
Профиль формата : Advanced Simple@L5
Настройки формата : BVOP1 / Custom Matrix
Параметр BVOP формата : 1
Параметр QPel формата : Нет
Параметр GMC формата : Без точки перехода
Параметр матрицы формата : Выборочная
Идентификатор кодека : XVID
Идентификатор кодека/Подсказка : XviD
Продолжительность : 1 ч. 38 м.
Битрейт : 1725 Кбит/сек
Ширина : 720 пикселей
Высота : 384 пикселя
Соотношение сторон : 1,85:1
Частота кадров : 23,976 (24000/1001) кадра/сек
Цветовое пространство : YUV
Субдискретизация насыщенности : 4:2:0
Битовая глубина : 8 бит
Тип развёртки : Прогрессивная
Метод сжатия : С потерями
Бит/(Пиксели*Кадры) : 0.260
Размер потока : 1,19 Гбайт (81%)
Библиотека кодирования : XviD 73
Аудио
Идентификатор : 1
Формат : AC-3
Формат/Информация : Audio Coding 3
Коммерческое название : Dolby Digital
Идентификатор кодека : 2000
Продолжительность : 1 ч. 38 м.
Вид битрейта : Постоянный
Битрейт : 384 Кбит/сек
Каналы : 6 каналов
Channel layout : L R C LFE Ls Rs
Частота : 48,0 КГц
Частота кадров : 31,250 кадров/сек (1536 SPF)
Битовая глубина : 16 бит
Метод сжатия : С потерями
Размер потока : 271 Мбайт (18%)
Выравнивание : Разделение по промежуткам
Продолжительность промежутка : 42 мс. (1,00 видеокадр)
Время предзагрузки промежутка : 500 мс.
ServiceKind/String : Complete Main

Скриншоты


[cybertorrent.ru].t203.torrent 
Торрент: Зарегистрирован [ 2019-03-18 10:04 ] · 5F664C7E06D0D168C10C3A8856CA96599E04D3D2

Скачать .torrent

Скачать

15 KB

Статус: проверено
Скачан: 0 раз
Размер: 1,46 GB
terms.php
[Профиль] [ЛС]
Показать сообщения:    
Ответить на тему

Текущее время: 17-Сен 19:14

Часовой пояс: UTC ± 0



Вы не можете начинать темы
Вы не можете отвечать на сообщения
Вы не можете редактировать свои сообщения
Вы не можете удалять свои сообщения
Вы не можете голосовать в опросах
Вы не можете прикреплять файлы к сообщениям
Вы можете скачивать файлы

Партнеры

Выражаем благодарность всем людям, внесшим вклад в наш сайт в далёком прошлом. Мы помним Вас, гордимся Вами и ждём Вас обратно!

Интересное в сети