Его время придёт (Мажит Бегалин) [1957, исторический, драма, биографический, WEB-DLRip]

Ответить на тему
Статистика раздачи
Размер:  1,37 GB   |    Зарегистрирован:  3 месяца 6 дней   |    Скачан:  0 раз

Полного источника не было: Никогда

   
 
Автор Сообщение

edich ®

Пол: Не указан

Стаж: 4 месяца 8 дней

Сообщений: 97

Создавать темы 14-Апр-2019 15:48

[Цитировать]

Его время придёт Жанр: исторический, драма, биографический
Страна: СССР, Алма-Атинская киностудия, Ленфильм
Год выпуска: 1957
Продолжительность: 01:32:47
Режиссёр: Мажит Бегалин
В ролях: Нурмухан Жантурин, Геннадий Карнович-Валуа, Владимир Честноков, Олег Лебедев (V), Камаси Умурзаков, Калыбек Куанышбаев, Шайза Ахметова, Шахан Мусин, Курманбек Жандарбеков, А. Мухамедьяров, Ахмед Шамиев, Шамши Тюменбаев, Геннадий Мичурин, Пётр Чернов, Константин Барташевич, Адриан Филиппов, Михаил Погоржельский, Георгий Милляр, Георгий Черноволенко, Кирилл Лавров, Константин Адашевский, Алексей Кельберер, Галина Водяницкая, Евгений Григорьев, Юрий Боголюбов, Нина Ольхина, Людмила Пономарева, Ахат Толубаев, Евгений Деммени
Описание: О знаменитом просветителе XIX в. Чокане Валиханове (1835-1865). Сын казахского народа, ученый-этнограф и известный путешественник, Чокан Валиханов привлекает внимание ученых Петербурга, находит признание в официальных кругах. Но личный успех не утешает казахского ученого Его тревожат думы о родном народе. Тщетно протестует он против бесправия, против мрака, в котором живут казахи. При встрече с Валихановым царь напоминает, что офицер, признанный двором, должен помнить лишь о своей службе. Встречи и дружба с Чернышевским и Достоевским укрепляют в Валиханове веру в светлое будущее казахов, в силу русского народа. Он верит, что придет время союза трудящихся казахов с великим русским народом Наступают тяжелые времена в жизни Чокана Валиханова. Повинуясь приказу, он вынужден сражаться в правительственных войсках против восставших казахов. Всякое свободомыслие жестоко преследуется. Валиханов идет в отставку и уезжает в отдаленный аул, чтобы передать свои знания народу. Ученый-просветитель тяжело болен, но он верит, что его мечта о счастье народа станет действительностью.
Доп. информация: Собственный рип.
Семпл: http://multi-up.com/1229147
Качество видео: WEB-DLRip
Формат видео: AVI
Видео: XviD, 720x464 (1.55:1), 25.000 fps, 1916 kbps avg
Аудио: Russian AC3 Dolby Digital, 48 kHz, 2/0 (L,R) ch, 192.00 kbps avg

MediaInfo

General
Complete name : G:\Его время придет. Шокан Валиханов\Его.время.придет.1957.WEB-DLRip.smit009.avi
Format : AVI
Format/Info : Audio Video Interleave
File size : 1.37 GiB
Duration : 1 h 32 min
Overall bit rate : 2 118 kb/s
Writing application : VirtualDubMod 1.5.10.3 | www.virtualdub-fr.org || (build 2550/release)
Writing library : VirtualDubMod build 2550/release
Video
ID : 0
Format : MPEG-4 Visual
Format profile : Advanced Simple@L5
Format settings : BVOP1 / Custom Matrix
Format settings, BVOP : 1
Format settings, QPel : No
Format settings, GMC : No warppoints
Format settings, Matrix : Custom
Codec ID : XVID
Codec ID/Hint : XviD
Duration : 1 h 32 min
Bit rate : 1 917 kb/s
Width : 704 pixels
Height : 464 pixels
Display aspect ratio : 3:2
Frame rate : 25.000 FPS
Color space : YUV
Chroma subsampling : 4:2:0
Bit depth : 8 bits
Scan type : Progressive
Compression mode : Lossy
Bits/(Pixel*Frame) : 0.235
Stream size : 1.24 GiB (90%)
Writing library : XviD 73
Audio
ID : 1
Format : AC-3
Format/Info : Audio Coding 3
Codec ID : 2000
Duration : 1 h 32 min
Bit rate mode : Constant
Bit rate : 192 kb/s
Channel(s) : 2 channels
Channel positions : Front: L R
Sampling rate : 48.0 kHz
Frame rate : 31.250 FPS (1536 SPF)
Bit depth : 16 bits
Compression mode : Lossy
Stream size : 127 MiB (9%)
Alignment : Split accross interleaves
Interleave, duration : 40 ms (1.00 video frame)
Interleave, preload duration : 500 ms
Service kind : Complete Main
[cybertorrent.ru].t2032.torrent 
Торрент: Зарегистрирован [ 2019-04-14 15:48 ] · AFCEFF65B6E46BC9EEE9C24A59B24E588DD3F882

Скачать .torrent

Скачать

14 KB

Статус: проверено
Скачан: 0 раз
Размер: 1,37 GB
terms.php
[Профиль] [ЛС]
Показать сообщения:    
Ответить на тему

Текущее время: 21-Июл 02:22

Часовой пояс: UTC ± 0



Вы не можете начинать темы
Вы не можете отвечать на сообщения
Вы не можете редактировать свои сообщения
Вы не можете удалять свои сообщения
Вы не можете голосовать в опросах
Вы не можете прикреплять файлы к сообщениям
Вы можете скачивать файлы