Они были актёрами (Георгий Натансон) [1981, военная драма, DVB]

Ответить на тему
Статистика раздачи
Размер:  1,9 GB   |    Зарегистрирован:  4 месяца 9 дней   |    Скачан:  0 раз

Полного источника не было: Никогда

   
 
Автор Сообщение

edich ®

Пол: Не указан

Стаж: 5 месяцев 12 дней

Сообщений: 161

Создавать темы 14-Апр-2019 15:48

[Цитировать]

Они были актёрами
Жанр: военная драма
Год выпуска: 1981
Продолжительность: 01:27:09
Режиссёр: Георгий Натансон
В ролях: Зинаида Кириенко, Игорь Ледогоров, Александр Фатюшин, Жанна Прохоренко, Владимир Дружников, Николай Волков (старший), Елизавета Сергеева, Людмила Стоянова, Аристарх Ливанов, Владимир Зайцев, Евгений Тарасов, Алексей Алексеев, Муза Крепкогорская, Иван Косых, Борис Битюков, Улдис Лиелдидж, Аудрис Мечисловас Хадаравичюс, Юозас Ригертас, Иван Жеваго, Г. Стельмахович
Описание: Когда фашисты заняли Крым, актеры драматического театра г. Симферополя вошли в подпольную группу «Сокол». Деятельность подпольщиков была многообразна: они расклеивали листовки с информацией Совинформбюро, составляли карты с указанием стратегических объектов врага, снабжали партизан лекарствами...Но не все люди вели себя на оккупированной территории одинаково достойно. Многие действительно вступили в противоборство с врагом, но были и те, кто пошел на службу к захватчикам и стал предателем.
Доп. информация: запись потока *.ts со спутника ABS-2, 75° в.д., ремукс в *.mkv программой VideoReDo.
Качество видео: DVB
Формат видео: MKV
Видео: MPEG2 Video, 704(768)x576 (4:3), 25,000 кадров/сек, 2862 Кбит/сек
Аудио: MPEG Audio, 48,0 КГц, 192 Кбит/сек, 2 канала

MediaInfo

Общее
Уникальный идентификатор : 184951375990784810079183997294532061359 (0x8B2456DE2CE6B70996957123925368AF)
Полное имя : D:\Torrent\ОНИ БЫЛИ АКТЕРАМИ СУБ (Zvezda 75).mkv
Формат : Matroska
Версия формата : Version 2
Размер файла : 1,90 Гбайт
Продолжительность : 1 ч. 27 м.
Режим общего битрейта : Переменный
Общий поток : 3116 Кбит/сек
Дата кодирования : UTC 2019-04-13 13:50:31
Программа кодирования : mkvmerge v7.8.0 ('River Man') 32bit built on Apr 3 2015 12:11:22
Библиотека кодирования : libebml v1.3.1 + libmatroska v1.4.2
Видео
Идентификатор : 1
Формат : MPEG Video
Версия формата : Version 2
Профиль формата : Main@Main
Параметр BVOP формата : Да
Параметр матрицы формата : Выборочная
Параметр GOP формата : Variable
Структура изображения : Frame
Идентификатор кодека : V_MPEG2
Идентификатор кодека/Информация : MPEG 1 or 2 Video
Продолжительность : 1 ч. 27 м.
Вид битрейта : Переменный
Битрейт : 2862 Кбит/сек
Максимальный битрейт : 15,0 Мбит/сек
Ширина : 704 пикселя
Высота : 576 пикселей
Соотношение сторон : 4:3
Режим частоты кадров : Постоянный
Частота кадров : 25,000 кадров/сек
Стандарт вещания : PAL
Цветовое пространство : YUV
Субдискретизация насыщенности : 4:2:0
Битовая глубина : 8 бит
Тип развёртки : Чересстрочная
Порядок развёртки : Верхнее поле первое
Метод сжатия : С потерями
Бит/(Пиксели*Кадры) : 0.282
Временной код первого кадра : 00:00:00:00
Оригинал временного кода : Group of pictures header
GOP, открыто/закрыто : Открыто
GOP, открыто/закрыто на первом кадре : Закрыто
Размер потока : 1,74 Гбайт (92%)
Default : Да
Forced : Нет
Аудио
Идентификатор : 2
Формат : MPEG Audio
Версия формата : Version 1
Профиль формата : Layer 2
Идентификатор кодека : A_MPEG/L2
Идентификатор кодека/Подсказка : MP2
Продолжительность : 1 ч. 27 м.
Вид битрейта : Постоянный
Битрейт : 192 Кбит/сек
Каналы : 2 канала
Частота : 48,0 КГц
Метод сжатия : С потерями
Задержка видео : 6 мс.
Размер потока : 120 Мбайт (6%)
Язык : Russian
Default : Да
Forced : Нет
Текст
Идентификатор : 3
Формат : UTF-8
Идентификатор кодека : S_TEXT/UTF8
Идентификатор кодека/Информация : UTF-8 Plain Text
Язык : Russian
Default : Нет
Forced : Нет

Если ваш рейтинг упадет ниже 0,3, вы не сможете скачивать торренты! Подробнее о рейтинге.

[cybertorrent.ru].t2042.torrent 
Торрент: Зарегистрирован [ 2019-04-14 15:48 ] · BCDBCA234C1C6A7074BFB2288CBF354EF7F159A1

Скачать .torrent

Скачать

19 KB

Статус: проверено
Скачан: 0 раз
Размер: 1,9 GB
terms.php
[Профиль] [ЛС]
Показать сообщения:    
Ответить на тему

Текущее время: 24-Авг 15:34

Часовой пояс: UTC ± 0



Вы не можете начинать темы
Вы не можете отвечать на сообщения
Вы не можете редактировать свои сообщения
Вы не можете удалять свои сообщения
Вы не можете голосовать в опросах
Вы не можете прикреплять файлы к сообщениям
Вы можете скачивать файлы