Ночное проклятье / Путешествие в смерть / Ночное желание / Пожелание смерти / Nightwish (Брюс Р. Кук / Bruce R. Cook) [1989, США, Ужасы, DVDRip] VO + DVO

Ответить на тему
Статистика раздачи
Размер:  1,47 GB   |    Зарегистрирован:  4 месяца 8 дней   |    Скачан:  0 раз

Полного источника не было: Никогда

   
 
Автор Сообщение

serzh ®

Пол: Не указан

Стаж: 5 месяцев 12 дней

Сообщений: 361

Создавать темы 15-Апр-2019 16:13

[Цитировать]

Ночное проклятье / Путешествие в смерть / Ночное желание / Пожелание смерти / Nightwish
«In your dreams no one can hear you Scream»
Страна: США
Жанр: Ужасы
Год выпуска: 1989
Продолжительность: 01:28:30
Перевод: Одноголосый закадровый
Перевод 2: Профессиональный (двухголосый закадровый)
Субтитры: нет
Режиссер: Брюс Р. Кук / Bruce R. Cook
В ролях: Брайан Томпсон, Джек Старретт, Элизабет Кайтан, Алиша Дас, Клэйтон Ронер, Артур
Цыбульски, Роберт Тессьер, Том Дуган, Гэйл Вэнс, Джон Хейден
Описание: Четыре студента под руководством старика-профессора изучают сновиденья. Для
этого, их тела погружаются в жидкость так, что лицевая часть головы остается на поверхности, и к
ним подключают датчики. Они сами придумывают сюжеты своих снов (кошмаров) и пытаются
управлять ими, а все что происходит во сне — проецируется на экран, за которым наблюдает их
наставник. После работы в лаборатории, для дальнейших исследований вся компания переезжает
в заброшенный деревянный дом, расположенный в глухой сельской местности, который еще и
оказывается «одержимый дьяволом». С этого момента начинает происходить разного рода
чертовщина и грань между реальным миром и сном становится практически незаметной.
Доп. информация: Дорожка с VO синхронизирована и наложена ale_x2008 при помощи Sony Vegas и VirtualDubMod.
За оцифрованную с VHS дорожку благодарим - alenavova
Дорожка с DVO (из релиза на трухе) подогнана под новый видеоряд и наложена ale_x2008 при помощи Sony Vegas и VirtualDubMod.

Релиз
Сэмпл: https://yadi.sk/i/fJcBksiQjE6XSQ
Качество видео: DVDRip [DVD CG]
Формат видео: AVI
Видео: XviD build 73, 688x528 (1.30:1), 25 fps, 1975 kbps avg, 0.22 bit/pixel
Аудио: AC3 Dolby Digital, 48000Hz 2/0 (L,R) ch (mono), 192 kbps avg (VO)
Аудио 2: AC3 Dolby Digital, 48000Hz 2/0 (L,R) ch (mono), 192 kbps avg (DVO)

MediaInfo

Ночное проклятье (Nightwish) [by ale_x2008].avi
Format : AVI
Format/Info : Audio Video Interleave
File size : 1.47 GiB
Duration : 1 h 28 min
Overall bit rate : 2 375 kb/s
Movie name : Nightwish 1990 PAL DVD REMUX [English Audio]
Director : DVDRip by ale_x2008
Genre : Horror
Writing application : VirtualDubMod 1.5.10.3 (build 2550/release)
Original source form/Name : Movie
Copyright : Edich2
Comment : Rutracker.org
Video
ID : 0
Format : MPEG-4 Visual
Format profile : Advanced Simple@L5
Format settings : BVOP1
Format settings, BVOP : 1
Format settings, QPel : No
Format settings, GMC : No warppoints
Format settings, Matrix : Default (MPEG)
Codec ID : XVID
Codec ID/Hint : XviD
Duration : 1 h 28 min
Bit rate : 1 976 kb/s
Width : 688 pixels
Height : 528 pixels
Display aspect ratio : 4:3
Frame rate : 25.000 FPS
Color space : YUV
Chroma subsampling : 4:2:0
Bit depth : 8 bits
Scan type : Progressive
Compression mode : Lossy
Bits/(Pixel*Frame) : 0.218
Stream size : 1.22 GiB (83%)
Writing library : XviD 73
Audio #1
ID : 1
Format : AC-3
Format/Info : Audio Coding 3
Codec ID : 2000
Duration : 1 h 28 min
Bit rate mode : Constant
Bit rate : 192 kb/s
Channel(s) : 2 channels
Channel positions : Front: L R
Sampling rate : 48.0 kHz
Frame rate : 31.250 FPS (1536 SPF)
Bit depth : 16 bits
Compression mode : Lossy
Stream size : 122 MiB (8%)
Alignment : Split accross interleaves
Interleave, duration : 40 ms (1.00 video frame)
Interleave, preload duratio : 500 ms
Service kind : Complete Main
Audio #2
ID : 2
Format : AC-3
Format/Info : Audio Coding 3
Codec ID : 2000
Duration : 1 h 28 min
Bit rate mode : Constant
Bit rate : 192 kb/s
Channel(s) : 2 channels
Channel positions : Front: L R
Sampling rate : 48.0 kHz
Frame rate : 31.250 FPS (1536 SPF)
Bit depth : 16 bits
Compression mode : Lossy
Stream size : 122 MiB (8%)
Alignment : Split accross interleaves
Interleave, duration : 40 ms (1.00 video frame)
Interleave, preload duratio : 500 ms
Service kind : Complete Main

Скриншоты



Если ваш рейтинг упадет ниже 0,3, вы не сможете скачивать торренты! Подробнее о рейтинге.

[cybertorrent.ru].t2065.torrent 
Торрент: Зарегистрирован [ 2019-04-15 16:13 ] · CDA28E54D9435B6B12D2A500A3C0F37A5A9573E5

Скачать .torrent

Скачать

15 KB

Статус: проверено
Скачан: 0 раз
Размер: 1,47 GB
terms.php
[Профиль] [ЛС]
Показать сообщения:    
Ответить на тему

Текущее время: 24-Авг 15:41

Часовой пояс: UTC ± 0



Вы не можете начинать темы
Вы не можете отвечать на сообщения
Вы не можете редактировать свои сообщения
Вы не можете удалять свои сообщения
Вы не можете голосовать в опросах
Вы не можете прикреплять файлы к сообщениям
Вы можете скачивать файлы