Замкнутый круг (Светлана Нагаева) [2016, Россия, мультфильм для взрослых, WEBRip]

Ответить на тему
Статистика раздачи
Размер:  22 MB   |    Зарегистрирован:  3 месяца 7 дней   |    Скачан:  0 раз

Полного источника не было: Никогда

   
 
Автор Сообщение

xelon ®

Пол: Не указан

Стаж: 3 месяца 13 дней

Сообщений: 78

Создавать темы 18-Мар-2019 10:01

[Цитировать]

Замкнутый круг
Страна: Россия
Жанр: мультфильм для взрослых
Продолжительность: 00:01:39
Год выпуска: 2016
Режиссёр: Светлана Нагаева
Описание: Фильм студентки курсов экспериментального молодежного объединения при киностудии "Союзмультфильм", посвящённый памяти её учителя Эдуарда Назарова.
Качество: WEBRip
Формат: AVI
Видео: 1651 kbps, 720х400 (16:9), 25.000 fps, MPEG-4 Visual (XviD)
Аудио: 192 kbps, 44.1 kHz, 2 channels, MPEG Audio (MP3)
Субтитры: отсутствуют

Подробные технические данные

General
Complete name : Замкнутый круг (2016).avi
Format : AVI
Format/Info : Audio Video Interleave
File size : 21.9 MiB
Duration : 1mn 39s
Overall bit rate : 1 853 Kbps
Writing application : VirtualDubMod 1.5.10.2 (build 2540/release)
Writing library : VirtualDubMod build 2540/release
Video
ID : 0
Format : MPEG-4 Visual
Format profile : Advanced Simple@L5
Format settings, BVOP : 2
Format settings, QPel : No
Format settings, GMC : No warppoints
Format settings, Matrix : Default (H.263)
Codec ID : XVID
Codec ID/Hint : XviD
Duration : 1mn 39s
Bit rate : 1 651 Kbps
Width : 720 pixels
Height : 400 pixels
Display aspect ratio : 16:9
Frame rate : 25.000 fps
Color space : YUV
Chroma subsampling : 4:2:0
Bit depth : 8 bits
Scan type : Progressive
Compression mode : Lossy
Bits/(Pixel*Frame) : 0.229
Stream size : 19.5 MiB (89%)
Writing library : XviD 73
Audio
ID : 1
Format : MPEG Audio
Format version : Version 1
Format profile : Layer 3
Codec ID : 55
Codec ID/Hint : MP3
Duration : 1mn 39s
Bit rate mode : Constant
Bit rate : 192 Kbps
Channel(s) : 2 channels
Sampling rate : 44.1 KHz
Compression mode : Lossy
Stream size : 2.27 MiB (10%)
Alignment : Split accross interleaves
Interleave, duration : 40 ms (1.00 video frame)
Interleave, preload duration : 500 ms

Скриншоты

[cybertorrent.ru].t210.torrent 
Торрент: Зарегистрирован [ 2019-03-18 10:04 ] · BF8189318CCBAB02887CA408CF2BCBB7FF41B9EF

Скачать .torrent

Скачать

14 KB

Статус: проверено
Скачан: 0 раз
Размер: 22 MB
terms.php
[Профиль] [ЛС]
Показать сообщения:    
Ответить на тему

Текущее время: 25-Июн 22:30

Часовой пояс: UTC ± 0



Вы не можете начинать темы
Вы не можете отвечать на сообщения
Вы не можете редактировать свои сообщения
Вы не можете удалять свои сообщения
Вы не можете голосовать в опросах
Вы не можете прикреплять файлы к сообщениям
Вы можете скачивать файлы