Ростов / Серии: 1-6 из 16 (Павел Дроздов) [2019, Детектив, история, SATRip]

Ответить на тему
Статистика раздачи
Размер:  3,52 GB   |    Зарегистрирован:  4 месяца 6 дней   |    Скачан:  0 раз

Полного источника не было: Никогда

   
 
Автор Сообщение

sss777sss ®

Пол: Не указан

Стаж: 5 месяцев 12 дней

Сообщений: 410

Создавать темы 17-Апр-2019 17:05

[Цитировать]

Ростов-- Год выпуска: 2019
Производство: «Киностудия КИТ», «Кинокомпания Телеостров» по заказу телеканала НТВ
Жанр: Детектив, история
Продолжительность: 00:50:25
Субтитры: нет-Режиссёр: Павел Дроздов-В ролях: Алексей Барабаш, Артур Смольянинов, Александр Головин, Иван Охлобыстин, Софья Ардова, Константин Адаев, Юрий Круглов, Феликс Кроль, Юрий Ваксман, Никита Тарасов, Янина Мелехова, Андрей Иванов (IV), Александра Богданова, Дмитрий Лавров (III), Кристина Борейко-Описание: В центре сюжета - Иван Козырев, «Козырь» (Артур Смольянинов). В прошлом он – вор-рецидивист, промышлявший в Ростове. Но времена изменились – теперь Козырь принял новую власть и вернулся в город, чтобы «навести порядок».
Его назначают начальником вновь сформированного отдела уголовного розыска. Руководство считает, что только Козырев может искоренить преступность в городе, ведь он изнутри знает воровской мир.
Собрав крепких рабочих в свою команду, Козырь начинает борьбу с преступными группировками. Стихийно собранному отделу приходится учиться сыскному делу буквально «на ходу». Они встретятся лицом к лицу с самыми лютыми бандами, чтобы отстоять мир и спокойствие в городе Ростове.
Сэмпл: http://multi-up.com/1229516
Качество: SATRip
Формат: AVI
Видео кодек: XviD
Аудио кодек: MP3
Видео: 720x304 (2.35:1), 25.000 fps, XviD build 73, 1463 Kbps
Аудио: 48 kHz, MP3, 2 ch, 192 Kbps
Реклама: Нет

Релиз

Автор рипа: 25Kuzmich

Без Рекламы

MI

General
Complete name :Downloads\Rostov.2019.XviD.SATRip.25Kuzmich\Rostov.e01.XviD.SATRip.25Kuzmich.avi
Format : AVI
Format/Info : Audio Video Interleave
File size : 600 MiB
Duration : 50mn 25s
Overall bit rate : 1 665 Kbps
Writing application : VirtualDubMod 1.5.10.3 | www.virtualdub-fr.org || (build 2550/release)
Writing library : VirtualDubMod build 2550/release
Video #0
ID : 0
Format : MPEG-4 Visual
Format profile : Advanced Simple@L5
Format settings, BVOP : 1
Format settings, QPel : No
Format settings, GMC : No warppoints
Format settings, Matrix : Default (MPEG)
Codec ID : XVID
Codec ID/Hint : XviD
Duration : 50mn 25s
Bit rate : 1 463 Kbps
Width : 720 pixels
Height : 304 pixels
Display aspect ratio : 2.35:1
Frame rate : 25.000 fps
Color space : YUV
Chroma subsampling : 4:2:0
Bit depth : 8 bits
Scan type : Progressive
Compression mode : Lossy
Bits/(Pixel*Frame) : 0.267
Stream size : 528 MiB (88%)
Writing library : XviD 73
Audio #1
ID : 1
Format : MPEG Audio
Format version : Version 1
Format profile : Layer 3
Mode : Joint stereo
Codec ID : 55
Codec ID/Hint : MP3
Duration : 50mn 25s
Bit rate mode : Constant
Bit rate : 192 Kbps
Channel(s) : 2 channels
Sampling rate : 48.0 KHz
Compression mode : Lossy
Stream size : 69.2 MiB (12%)
Alignment : Aligned on interleaves
Interleave, duration : 40 ms (1.00 video frame)
Interleave, preload duration : 504 ms
Writing library : LAME3.99r
Encoding settings : -m j -V 4 -q 2 -lowpass 18.6 -b 192

Скриншоты

Внимание! Раздача ведётся путём добавления новых серий:

(1) остановить скачивание,
(2) удалить старый торрент у себя из клиента (старые серии удалять не надо),
(3) скачать новый торрент и запустить его у себя в клиенте вместо старого, при этом указать клиенту путь в старую папку куда и должно происходить скачивание новых серий.
Ваш клиент при этом должен произвести хеширование (проверку) старой папки (если не производит сам - помогите ему сделать это), и будет докачивать только те серии которых у вас ещё нет. Старые серии при этом не удаляются, а продолжают раздаваться!
Eсли вы уже удалили старые серии, то предотвратить повторную закачку старых серий можно, отжав галочку в соответсвующих местах при запуске нового торрента. По возможности, желательно не удалять старые серии как можно дольше чтобы релизёр не столько продолжал раздавать старые серии, а смог сконцентрироваться на новых
.
Предыдущие и альтернативные раздачи

Если ваш рейтинг упадет ниже 0,3, вы не сможете скачивать торренты! Подробнее о рейтинге.

[cybertorrent.ru].t2107.torrent 
Торрент: Зарегистрирован [ 2019-04-17 17:05 ] · A34AFE9D704283D357A946FB732367878F9A9AD3

Скачать .torrent

Скачать

18 KB

Статус: проверено
Скачан: 0 раз
Размер: 3,52 GB
terms.php
[Профиль] [ЛС]
Показать сообщения:    
Ответить на тему

Текущее время: 24-Авг 15:58

Часовой пояс: UTC ± 0



Вы не можете начинать темы
Вы не можете отвечать на сообщения
Вы не можете редактировать свои сообщения
Вы не можете удалять свои сообщения
Вы не можете голосовать в опросах
Вы не можете прикреплять файлы к сообщениям
Вы можете скачивать файлы