Ио / IO (Джонатан Элпер / Jonathan Helpert) [2019, США, фантастика, драма, мелодрама, приключения, WEB-DLRip] DVO + Original (Eng) + Sub (Rus, Eng)

Ответить на тему
Статистика раздачи
Размер:  1,44 GB   |    Зарегистрирован:  4 месяца 2 дня   |    Скачан:  0 раз

Полного источника не было: Никогда

   
 
Автор Сообщение

Lew ®

Пол: Не указан

Стаж: 4 месяца 8 дней

Сообщений: 293

Создавать темы 18-Мар-2019 10:01

[Цитировать]

Ио / IO- Год выхода: 2019
Страна: США
Производство: Baked Studios, Mandalay Pictures
Жанр: фантастика, драма, мелодрама, приключения
Продолжительность: 01:36:02
Перевод: Любительский (двухголосый закадровый) Horizon Studio
Субтитры: Русские (Netflix), Английские (внешние *.srt)
Оригинальная аудиодорожка: Английская-Режиссер:
Джонатан Элпер / Jonathan Helpert-В ролях:
Маргарет Куэлли (Sam Walden), Энтони Маки (Micah), Дэнни Хьюстон (Henry)-О фильме:
Земля стала необитаемой и всё человечество переселилось на спутник Юпитера — Ио. На родной планете почти никого не осталось, кроме одинокой Сэм, которая надеется найти способ спасти Землю. Но появление ещё одного выжившего заставляет её пересмотреть свои планы.-Релиз групп | | IMDB | КиноПоиск | Сэмпл |-Качество: WEB-DLRip [IO.2019.1080p.NF.WEB-DL.DD5.1.H264-CMRG]
Формат: AVI
Видео: 720x304 (2.37:1), 24.000 fps, XviD build 67 ~1750 kbps avg, 0.33 bit/pixel
Аудио #1: 48 kHz, AC3 Dolby Digital, 2/0 (L,R) ch, ~192 kbps avg (RUS)
Аудио #2: 48 kHz, AC3 Dolby Digital, 2/0 (L,R) ch, ~192 kbps avg (ENG)-

Скриншоты

-

MediaInfo

Код:Общее
Полное имя : D:\IO_2019_WEB-DLRip_DVO_by_Dalemake.avi
Формат : AVI
Формат/Информация : Audio Video Interleave
Размер файла : 1,44 Гбайт
Продолжительность : 1 ч. 36 м.
Общий поток : 2148 Кбит/сек
Программа кодирования : VirtualDubMod 1.5.10.3 | www.virtualdub-fr.org || (build 2550/release)
Библиотека кодирования : VirtualDubMod build 2550/release
Видео
Идентификатор : 0
Формат : MPEG-4 Visual
Профиль формата : Advanced Simple@L5
Параметр BVOP формата : 1
Параметр QPel формата : Нет
Параметр GMC формата : Без точки перехода
Параметр матрицы формата : Выборочная
Идентификатор кодека : XVID
Идентификатор кодека/Подсказка : XviD
Продолжительность : 1 ч. 36 м.
Битрейт : 1750 Кбит/сек
Ширина : 720 пикселей
Высота : 304 пикселя
Соотношение сторон : 2,35:1
Частота кадров : 24,000 кадра/сек
Цветовое пространство : YUV
Субдискретизация насыщенности : 4:2:0
Битовая глубина : 8 бит
Тип развёртки : Прогрессивная
Метод сжатия : С потерями
Бит/(Пиксели*Кадры) : 0.333
Размер потока : 1,17 Гбайт (81%)
Библиотека кодирования : XviD 67
Аудио #1
Идентификатор : 1
Формат : AC-3
Формат/Информация : Audio Coding 3
Расширение режима : CM (complete main)
Параметр Endianness формата : Big
Идентификатор кодека : 2000
Продолжительность : 1 ч. 36 м.
Вид битрейта : Постоянный
Битрейт : 192 Кбит/сек
Каналы : 2 канала
Расположение каналов : Front: L R
Частота : 48,0 КГц
Метод сжатия : С потерями
Размер потока : 132 Мбайт (9%)
Выравнивание : Разделение по промежуткам
Продолжительность промежутка : 42 мс. (1,00 видеокадр)
Время предзагрузки промежутка : 500 мс.
Аудио #2
Идентификатор : 2
Формат : AC-3
Формат/Информация : Audio Coding 3
Расширение режима : CM (complete main)
Параметр Endianness формата : Big
Идентификатор кодека : 2000
Продолжительность : 1 ч. 36 м.
Вид битрейта : Постоянный
Битрейт : 192 Кбит/сек
Каналы : 2 канала
Расположение каналов : Front: L R
Частота : 48,0 КГц
Метод сжатия : С потерями
Размер потока : 132 Мбайт (9%)
Выравнивание : Разделение по промежуткам
Продолжительность промежутка : 42 мс. (1,00 видеокадр)
Время предзагрузки промежутка : 500 мс.
-При появлении проф. перевода рип будет перезалит!-
[cybertorrent.ru].t211.torrent 
Торрент: Зарегистрирован [ 2019-03-18 10:04 ] · 4C6086155BB30F270590468C104AF23333B9457E

Скачать .torrent

Скачать

15 KB

Статус: проверено
Скачан: 0 раз
Размер: 1,44 GB
terms.php
[Профиль] [ЛС]
Показать сообщения:    
Ответить на тему

Текущее время: 21-Июл 02:59

Часовой пояс: UTC ± 0



Вы не можете начинать темы
Вы не можете отвечать на сообщения
Вы не можете редактировать свои сообщения
Вы не можете удалять свои сообщения
Вы не можете голосовать в опросах
Вы не можете прикреплять файлы к сообщениям
Вы можете скачивать файлы