В темноте / Во тьме / In the Dark / Сезон: 1 / Серии: 1 (13) (Норман Бакли / Norman Buckley, Брайан Дэннели / Brian dannely, Анна Мастро / Anna Mastro) [2019, США, драма, комедия, WEB-DLRip] MVO (TVShows)

Ответить на тему
Статистика раздачи
Размер:  1,51 GB   |    Зарегистрирован:  4 месяца 6 дней   |    Скачан:  0 раз

Полного источника не было: Никогда

   
 
Автор Сообщение

Рамфоринх ®

Пол: Не указан

Стаж: 5 месяцев 12 дней

Сообщений: 355

Создавать темы 17-Апр-2019 17:05

[Цитировать]

В темноте / In the Dark
Год выпуска: 2019
Страна: США
Жанр: драма, комедия
Продолжительность: ~ 00:44:00
Перевод: Любительский (многоголосый закадровый)(TVShows)
Субтитры: нет
Режиссёр: Норман Бакли / Norman Buckley, Брайан Дэннели / Brian dannely, Анна Мастро / Anna Mastro
-В ролях:
Перри Мэттфелд, Брук Маркам, Кестон Джон, Морган Кранц, Кэйси Дейдрик, Линдси Броад, Кэтлин Йорк, Лесли Силва
Описание:
Мерфи — слепая девушка, которая живет с лучшей подругой Джесс и собакой-поводырем Кренделем. Она курит, увлекается случайными сексуальными связями, любит выпить и вечно всем недовольна. Мерфи подружилась с подростком Тайсоном после того, как он спас её от грабителя. Парень добрый, отзывчивый и умный, но тратит свою жизнь впустую, зарабатывая продажей наркотиков на улице. Однажды ночью, гуляя с Кренделем, Мерфи натыкается на безжизненное тело Тайсона. Когда приезжает полиция, труп исчезает, а детективы не доверяют не совсем трезвой девушке. И теперь единственное, что удерживает героиню от дальнейшего саморазрушения, — это желание узнать, что же случилось с Тайсоном...-Качество: WEB-DLRip
Формат: AVI
Видео кодек: XviD
Видео: 720x400 (1.80:1), 23.976 fps, XviD build 73 ~2100 kbps avg, 0.31 bit/pixel
Аудио Rus: 48 kHz, AC3 Dolby Digital, 3/2 (L,C,R,l,r) + LFE ch, ~384 kbps
-Рип: Ruddle
Реклама отсутствует
- -Все раздачи сериала-

MI

Код:Общее
Полное имя : D:\In The Dark Season 1 WEB-DLRip\In.The.Dark.s01e01.WEB-DLRip.RGzsRutracker.avi
Формат : AVI
Формат/Информация : Audio Video Interleave
Размер файла : 767 Мбайт
Продолжительность : 42 м. 34 с.
Общий поток : 2519 Кбит/сек
Программа кодирования : VirtualDubMod 1.5.10.3 | www.virtualdub-fr.org || (build 2550/release)
Библиотека кодирования : VirtualDubMod build 2550/release
Видео
Идентификатор : 0
Формат : MPEG-4 Visual
Профиль формата : Advanced Simple@L5
Настройки формата : BVOP2
Параметр BVOP формата : 2
Параметр QPel формата : Нет
Параметр GMC формата : Без точки перехода
Параметр матрицы формата : Default (MPEG)
Идентификатор кодека : XVID
Идентификатор кодека/Подсказка : XviD
Продолжительность : 42 м. 34 с.
Битрейт : 2126 Кбит/сек
Ширина : 720 пикселей
Высота : 400 пикселей
Соотношение сторон : 16:9
Частота кадров : 23,976 (24000/1001) кадра/сек
Цветовое пространство : YUV
Субдискретизация насыщенности : 4:2:0
Битовая глубина : 8 бит
Тип развёртки : Прогрессивная
Метод сжатия : С потерями
Бит/(Пиксели*Кадры) : 0.308
Размер потока : 647 Мбайт (84%)
Библиотека кодирования : XviD 73
Аудио
Идентификатор : 1
Формат : AC-3
Формат/Информация : Audio Coding 3
Идентификатор кодека : 2000
Продолжительность : 42 м. 34 с.
Вид битрейта : Постоянный
Битрейт : 384 Кбит/сек
Каналы : 6 каналов
Расположение каналов : Front: L C R, Side: L R, LFE
Частота : 48,0 КГц
Частота кадров : 31,250 кадров/сек (1536 SPF)
Битовая глубина : 16 бит
Метод сжатия : С потерями
Размер потока : 117 Мбайт (15%)
Выравнивание : Разделение по промежуткам
Продолжительность промежутка : 42 мс. (1,00 видеокадр)
Время предзагрузки промежутка : 500 мс.
ServiceKind/String : Complete Main

Скриншоты

Внимание! Раздача ведётся путём добавления новых серий!

Внимание! Раздача ведётся путём добавления новых серий; при каждом добавлении создётся новый торрент. Чтобы начать докачку новой серии, пользователям необходимо сделать следующее: (1) остановить скачивание, (2) удалить старый торрент у себя из клиента (старые серии удалять не надо), (3) скачать новый торрент и запустить его у себя в клиенте вместо старого, при этом указать клиенту путь в старую папку куда и должно происходить скачивание новых серий.
Ваш клиент при этом должен произвести хеширование (проверку) старой папки (если не производит сам - помогите ему сделать это), и будет докачивать только те серии которых у вас ещё нет. Старые серии при этом не удаляются, а продолжают раздаваться!
Eсли вы уже удалили старые серии, то предотвратить повторную закачку старых серий можно, отжав галочку в соответсвующих местах при запуске нового торрента.
Как закачать отдельный файл из торрента или докачать ранее пропущенные файлы торрента!
Релиз группы:

Если ваш рейтинг упадет ниже 0,3, вы не сможете скачивать торренты! Подробнее о рейтинге.

[cybertorrent.ru].t2111.torrent 
Торрент: Зарегистрирован [ 2019-04-17 17:05 ] · 05FB095C1D8E875C66ABAD46B84979308692DFD9

Скачать .torrent

Скачать

16 KB

Статус: проверено
Скачан: 0 раз
Размер: 1,51 GB
terms.php
[Профиль] [ЛС]
Показать сообщения:    
Ответить на тему

Текущее время: 24-Авг 16:30

Часовой пояс: UTC ± 0



Вы не можете начинать темы
Вы не можете отвечать на сообщения
Вы не можете редактировать свои сообщения
Вы не можете удалять свои сообщения
Вы не можете голосовать в опросах
Вы не можете прикреплять файлы к сообщениям
Вы можете скачивать файлы