Звонок мертвецу / Abgeschnitten (Кристиан Альварт / Christian Alvart) [2018, Германия, ужасы, боевик, триллер, криминал, детектив, WEB-DLRip] Dub

Ответить на тему
Статистика раздачи
Размер:  1,46 GB   |    Зарегистрирован:  4 дня   |    Скачан:  0 раз
Сидов:  3535  [  0 KB/s  ]   Личеров:  278  [  0 KB/s  ]  
   
 
Автор Сообщение

солнышко ®

Пол: Не указан

Стаж: 1 месяц 9 дней

Сообщений: 182

Создавать темы 17-Апр-2019 17:05

[Цитировать]

Звонок мертвецу / Abgeschnitten- Год выхода: 2018
Страна: Германия
Жанр: ужасы, боевик, триллер, криминал, детектив
Продолжительность: 02:11:37
Перевод: Профессиональный (полное дублирование)
Субтитры: нет-Режиссер:
Кристиан Альварт / Christian Alvart-В ролях:
Мориц Бляйбтрой, Ясна Фритци Бауэр, Ларс Айдингер, Фахри Огюн Ярдим, Энно Хессе, Кристиан Кухенбух, Урс Юккер, Барбара Пракопенка, Джой Мария Бэй, Ян Бюлов-О фильме:
Судмедэксперт Пауль Херцфельд обнаруживает в голове чудовищно изуродованного трупа записку, на которой — телефонный номер с указанием: позвони и узнаешь судьбу своей похищенной дочери. На острове Хельголанд, отрезанном от суши страшным ураганом, Пауля поджидает еще один мертвец, а внутри — дальнейшие указания. И это только начало цепочки смертей… Психопат-похититель не прочь поиграть с жертвами в кошки-мышки. Тот, кто разгадает головоломку из тел, имеет шансы остаться в живых.-Релиз групп | | IMDB | КиноПоиск | Сэмпл |-Качество: WEB-DLRip
Формат: AVI
Видео: 720x304 (2.37:1), 24.000 fps, XviD build 67 ~1384 kbps avg, 0.26 bit/pixel
Аудио: 48 kHz, AC3 Dolby Digital, 2/0 (L,R) ch, ~192 kbps avg - iTunes Russia-

Скриншоты

-

MediaInfo

Код:Полное имя : D:\Zvonok_mertvetcu_2018_WEB-DLRip_iT_by_Dalemake.avi
Формат : AVI
Формат/Информация : Audio Video Interleave
Размер файла : 1,46 Гбайт
Продолжительность : 2 ч. 11 м.
Общий поток : 1586 Кбит/сек
Программа кодирования : VirtualDubMod 1.5.10.3 | www.virtualdub-fr.org || (build 2550/release)
Библиотека кодирования : VirtualDubMod build 2550/release
Видео
Идентификатор : 0
Формат : MPEG-4 Visual
Профиль формата : Advanced Simple@L5
Параметр BVOP формата : 1
Параметр QPel формата : Нет
Параметр GMC формата : Без точки перехода
Параметр матрицы формата : Выборочная
Идентификатор кодека : XVID
Идентификатор кодека/Подсказка : XviD
Продолжительность : 2 ч. 11 м.
Битрейт : 1385 Кбит/сек
Ширина : 720 пикселей
Высота : 304 пикселя
Соотношение сторон : 2,35:1
Частота кадров : 24,000 кадра/сек
Цветовое пространство : YUV
Субдискретизация насыщенности : 4:2:0
Битовая глубина : 8 бит
Тип развёртки : Прогрессивная
Метод сжатия : С потерями
Бит/(Пиксели*Кадры) : 0.264
Размер потока : 1,27 Гбайт (87%)
Библиотека кодирования : XviD 67
Аудио
Идентификатор : 1
Формат : AC-3
Формат/Информация : Audio Coding 3
Расширение режима : CM (complete main)
Параметр Endianness формата : Big
Идентификатор кодека : 2000
Продолжительность : 2 ч. 11 м.
Вид битрейта : Постоянный
Битрейт : 192 Кбит/сек
Каналы : 2 канала
Расположение каналов : Front: L R
Частота : 48,0 КГц
Битовая глубина : 16 бит
Метод сжатия : С потерями
Размер потока : 181 Мбайт (12%)
Выравнивание : Разделение по промежуткам
Продолжительность промежутка : 42 мс. (1,00 видеокадр)
Время предзагрузки промежутка : 500 мс.
-

Если ваш рейтинг упадет ниже 0,3, вы не сможете скачивать торренты! Подробнее о рейтинге.

[cybertorrent.ru].t2121.torrent 
Торрент: Зарегистрирован [ 2019-04-17 17:05 ] · 3F33BCDF6473B81C0E627B0AD6CAD5E1B816AC4C

Скачать .torrent

Скачать

15 KB

Статус: проверено
Скачан: 0 раз
Размер: 1,46 GB
terms.php
[Профиль] [ЛС]
Показать сообщения:    
Ответить на тему

Текущее время: 21-Апр 18:44

Часовой пояс: UTC ± 0



Вы не можете начинать темы
Вы не можете отвечать на сообщения
Вы не можете редактировать свои сообщения
Вы не можете удалять свои сообщения
Вы не можете голосовать в опросах
Вы не можете прикреплять файлы к сообщениям
Вы можете скачивать файлы