Ростов / Серии: 1-6 из 16 (Павел Дроздов) [2019, детектив, драма, WEBRip 1080p]

Ответить на тему
Статистика раздачи
Размер:  12,89 GB   |    Зарегистрирован:  5 месяцев 1 день   |    Скачан:  0 раз

Полного источника не было: Никогда

   
 
Автор Сообщение

sss777sss ®

Пол: Не указан

Стаж: 6 месяцев 6 дней

Сообщений: 423

Создавать темы 17-Апр-2019 17:05

[Цитировать]

Ростов
Год выпуска: 2019
Производство: Киностудия КИТ, Кинокомпания Телеостров
Жанр: детектив, драма
Продолжительность: ~00:51:00 серия
Субтитры: нет
Режиссёр: Павел Дроздов
В ролях: Алексей Барабаш, Артур Смольянинов, Александр Головин, Иван Охлобыстин, Софья Ардова, Константин Адаев, Юрий Круглов, Феликс Кроль, Юрий Ваксман, Никита Тарасов, Янина Мелехова, Андрей Иванов , Александра Богданова, Дмитрий Лавров , Кристина Борейко
Описание: В центре сюжета - Иван Козырев, «Козырь» . В прошлом он – вор-рецидивист, промышлявший в Ростове. Но времена изменились – теперь Козырь принял новую власть и вернулся в город, чтобы «навести порядок».
Его назначают начальником вновь сформированного отдела уголовного розыска. Руководство считает, что только Козырев может искоренить преступность в городе, ведь он изнутри знает воровской мир.Собрав крепких рабочих в свою команду, Козырь начинает борьбу с преступными группировками. Стихийно собранному отделу приходится учиться сыскному делу буквально «на ходу». Они встретятся лицом к лицу с самыми лютыми бандами, чтобы отстоять мир и спокойствие в городе Ростове.

Реклама: Нет.
Кинопоиск
Все раздачи сериала
Sample
Качество: WEBRip 1080p - Nikolspup (ExKinoRay)
Формат: MKV
Видео кодек: H.264
Аудио кодек: AC3
Видео: MPEG4 AVC Video, H264, 16:9, 1920x1080, 25 fps, ~6000 kbps, 0.116 bit/pixel
Аудио: AC3 Dolby Digital, 48.0 kHz, 2/0 (L,R) ch, 192 kbps

Внимание! Раздача ведётся путём добавления новых серий

Раздача ведётся путём добавления новых серий, при каждом добавлении создаётся новый торрент. Чтобы начать докачку новой серии, пользователям необходимо сделать следующее:
- Остановить скачивание.
- Удалить старый торрент у себя из клиента (старые серии удалять не надо).
- Скачать новый торрент и запустить его у себя в клиенте вместо старого, при этом указать клиенту путь в старую папку куда и должно происходить скачивание новых серий.
Ваш клиент при этом должен произвести хеширование (проверку) старой папки (если не производит сам - помогите ему сделать это), и будет докачивать только те серии которых у вас ещё нет. Старые серии при этом не удаляются, а продолжают раздаваться!
Если вы уже удалили старые серии, то предотвратить повторную закачку старых серий можно, отжав галочку в соответствующих местах при запуске нового торрента. По возможности, желательно не удалять старые серии как можно дольше, чтобы релизер не столько продолжал раздавать старые серии, а смог сконцентрироваться на новых.

MI

General
Unique ID : 195541580259206508213444934599678074763 (0x931BF0402F9D76AC82D6CAAA8BCB9F8B)
Complete name : D:\Rostov.2019.WEB-DL.(1080p).ExKinoRay\Rostov.(01.seriya).2019.WEB-DL.(1080p).ExKinoRay.mkv
Format : Matroska
Format version : Version 4 / Version 2
File size : 2.20 GiB
Duration : 51 min 2 s
Overall bit rate mode : Constant
Overall bit rate : 6 175 kb/s
Encoded date : UTC 2019-04-15 18:06:54
Writing application : mkvmerge v7.8.0 ('River Man') 32bit built on Mar 27 2015 16:18:02
Writing library : libebml v1.3.1 + libmatroska v1.4.2
Video
ID : 1
Format : AVC
Format/Info : Advanced Video Codec
Format profile : High@L4.1
Format settings : 2 Ref Frames
Format settings, CABAC : No
Format settings, ReFrames : 2 frames
Codec ID : V_MPEG4/ISO/AVC
Duration : 51 min 2 s
Bit rate mode : Constant
Bit rate : 6 000 kb/s
Width : 1 920 pixels
Height : 1 080 pixels
Display aspect ratio : 16:9
Frame rate mode : Constant
Frame rate : 25.000 FPS
Standard : PAL
Color space : YUV
Chroma subsampling : 4:2:0
Bit depth : 8 bits
Scan type : Progressive
Bits/(Pixel*Frame) : 0.116
Stream size : 2.13 GiB (97%)
Default : Yes
Forced : No
Color range : Limited
Color primaries : BT.709
Transfer characteristics : BT.709
Matrix coefficients : BT.709
Audio
ID : 2
Format : AC-3
Format/Info : Audio Coding 3
Codec ID : A_AC3
Duration : 51 min 2 s
Bit rate mode : Constant
Bit rate : 192 kb/s
Channel(s) : 2 channels
Channel positions : Front: L R
Sampling rate : 48.0 kHz
Frame rate : 31.250 FPS (1536 SPF)
Bit depth : 16 bits
Compression mode : Lossy
Stream size : 70.1 MiB (3%)
Language : Russian
Service kind : Complete Main
Default : Yes
Forced : No

Скриншоты


[cybertorrent.ru].t2122.torrent 
Торрент: Зарегистрирован [ 2019-04-17 17:05 ] · C304D1A91F7CC6EA6E654FEC2570F3F8134CFAFD

Скачать .torrent

Скачать

65 KB

Статус: проверено
Скачан: 0 раз
Размер: 12,89 GB
terms.php
[Профиль] [ЛС]
Показать сообщения:    
Ответить на тему

Текущее время: 19-Сен 04:22

Часовой пояс: UTC ± 0



Вы не можете начинать темы
Вы не можете отвечать на сообщения
Вы не можете редактировать свои сообщения
Вы не можете удалять свои сообщения
Вы не можете голосовать в опросах
Вы не можете прикреплять файлы к сообщениям
Вы можете скачивать файлы

Партнеры

Выражаем благодарность всем людям, внесшим вклад в наш сайт в далёком прошлом. Мы помним Вас, гордимся Вами и ждём Вас обратно!

Интересное в сети