Психология любви / Серии: 1-4 из 4 (Наталья Углицких) [2018, мелодрама, WEBRip]

Ответить на тему
Статистика раздачи
Размер:  2,34 GB   |    Зарегистрирован:  4 месяца 6 дней   |    Скачан:  0 раз

Полного источника не было: Никогда

   
 
Автор Сообщение

sss777sss ®

Пол: Не указан

Стаж: 5 месяцев 12 дней

Сообщений: 410

Создавать темы 17-Апр-2019 17:05

[Цитировать]

Психология любви
Год выпуска: 2018
Производство: Профит
Жанр: мелодрама
Продолжительность: ~00:46:00 серия
Субтитры: нет
Режиссёр: Наталья Углицких
В ролях: Светлана Антонова, Кирилл Гребенщиков, Любовь Баханкова, Родион Вьюшкин, Евгения Каверау

Описание: У преуспевающей бизнес-леди Вероники Ливановой налаженная жизнь: она живет в загородном доме, управляет собственным рестораном и, после развода с мужем, нашла новую любовь – красивого и заботливого мужчину. Но, пока Ника занималась бизнесом и устраивала личную жизнь, упустила из виду проблемы своей дочери-подростка Кати и потеряла ее доверие. Именно в этот трудный момент любимый изменяет ей с другой. Счастье оказалось иллюзией, рухнувшей в один миг. Пытаясь решить навалившиеся проблемы, Ника приглашает психолога Александру, чтобы попробовать вернуть все на свои места. Сможет ли Александра помочь Нике и ее близким снова стать семьей, забыть измену, предательство и разочарование?

Реклама: Нет.
Кино-театр
Все раздачи сериала
Sample
Качество: WEBRip - 25Kuzmich
Формат: AVI
Видео кодек: XviD
Аудио кодек: AC3
Видео: 720x400 (1.80:1), 25 fps, XviD build 73 ~1580 kbps avg, 0.220 bit/pixel
Аудио: 48.0 kHz, AC3 Dolby Digital, 2/0 (L,R) ch, ~ 192 kbps

MI

General
Complete name : D:\Psihologiya.lyubvi.2018.WEB-DLRip.25Kuzmich\Psihologiya.lyubvi.(01.seriya.iz.04).XviD.SATRip.25Kuzmich.avi
Format : AVI
Format/Info : Audio Video Interleave
File size : 600 MiB
Duration : 46 min 53 s
Overall bit rate : 1 789 kb/s
Writing application : VirtualDubMod 1.5.10.3 | www.virtualdub-fr.org || (build 2550/release)
Writing library : VirtualDubMod build 2550/release
Video
ID : 0
Format : MPEG-4 Visual
Format profile : Advanced Simple@L5
Format settings : BVOP1
Format settings, BVOP : 1
Format settings, QPel : No
Format settings, GMC : No warppoints
Format settings, Matrix : Default (MPEG)
Codec ID : XVID
Codec ID/Hint : XviD
Duration : 46 min 53 s
Bit rate : 1 587 kb/s
Width : 720 pixels
Height : 400 pixels
Display aspect ratio : 16:9
Frame rate : 25.000 FPS
Color space : YUV
Chroma subsampling : 4:2:0
Bit depth : 8 bits
Scan type : Progressive
Compression mode : Lossy
Bits/(Pixel*Frame) : 0.220
Stream size : 532 MiB (89%)
Writing library : XviD 73
Audio
ID : 1
Format : AC-3
Format/Info : Audio Coding 3
Codec ID : 2000
Duration : 46 min 53 s
Bit rate mode : Constant
Bit rate : 192 kb/s
Channel(s) : 2 channels
Channel positions : Front: L R
Sampling rate : 48.0 kHz
Frame rate : 31.250 FPS (1536 SPF)
Bit depth : 16 bits
Compression mode : Lossy
Stream size : 64.4 MiB (11%)
Alignment : Split accross interleaves
Interleave, duration : 40 ms (1.00 video frame)
Interleave, preload duratio : 500 ms
Service kind : Complete Main

Скриншоты


Если ваш рейтинг упадет ниже 0,3, вы не сможете скачивать торренты! Подробнее о рейтинге.

[cybertorrent.ru].t2125.torrent 
Торрент: Зарегистрирован [ 2019-04-17 17:05 ] · C1FC95BC300BDDA98B703E79170DA8DC4EBABB35

Скачать .torrent

Скачать

13 KB

Статус: проверено
Скачан: 0 раз
Размер: 2,34 GB
terms.php
[Профиль] [ЛС]
Показать сообщения:    
Ответить на тему

Текущее время: 24-Авг 16:24

Часовой пояс: UTC ± 0



Вы не можете начинать темы
Вы не можете отвечать на сообщения
Вы не можете редактировать свои сообщения
Вы не можете удалять свои сообщения
Вы не можете голосовать в опросах
Вы не можете прикреплять файлы к сообщениям
Вы можете скачивать файлы